[ Сегодня идет свободное скачивание без начисления Download ]


Статистика раздачи
Нет
 
   
 
Top  
 
 
8 лучших свиданий«Ищу мужа своей жене» Год выпуска: 2016
Страна: Россия
Производство: Kvartal 95 Studio
Жанр: Комедия, мелодрама
Режиссёр: Марюс Вайсберг
Озвучивают: Владимир Зеленский, Вера Брежнева, Владимир Епифанцев, Евгений Кошевой, Сергей Казанин, Нино Кантария, Виктор Щур, Мария Ивакова
Перевод: Не требуется
Субтитры: Нет
Дополнительно: ВНИМАНИЕ!!! Реклама отсутствует полностью!
Описание: Одним солнечным днем преуспевающий владелец ветклиники Никита узнает, что неизлечимо болен. Он не подозревает, что это врачебная ошибка, и всерьез задумывается: кто же позаботится о его прекрасных жене, детях и бизнесе?.. И тут в его голову приходит мысль, что, как это ни прискорбно, кажется, пора подыскивать себе замену.
Так — после жесткого отбора — в дом семьи Соколовых под благовидным предлогом заселяется пожарный Илья, мужчина надежный и без вредных привычек. Никита начинает тайную операцию под кодовым названием «замена». А когда Никита узнает, что его здоровью ничто не угрожает, уже поздно!.. Распрекрасного Илью уже успели полюбить все, включая пациентов ветклиники. Борьба не на жизнь, а на любовь только начинается. Дата премьеры (мир): 4 марта 2016
Дата премьеры (РФ): 3 марта 2016, «Централ Партнершип»
Качество: WEB-DLRip
Продолжительность: 01:32:56
Формат: AVI
Видео кодек: XviD
Аудио кодек: AC3
Видео: 720x400 (1.80:1), 25 fps, XviD build 50 ~858 kbps avg, 0.119 bit/pixel
Аудио: 48 kHz, AC3 Dolby Digital, 2/0 (L,R) ch, ~192.00 kbps avg

MediaInfo

8.Svidaniy.2016.O.700.WEB-DLRip.avi
Format : AVI
Format/Info : Audio Video Interleave
File size : 704 MiB
Duration : 1h 32mn
Overall bit rate : 1 059 Kbps
Movie name : rustorrents.info
Writing application : VirtualDubMod 1.5.10.3 | www.virtualdub-fr.org || (build 2550/release)
Video
ID : 0
Format : MPEG-4 Visual
Format profile : Advanced [email protected]
Format settings, BVOP : 2
Format settings, QPel : No
Format settings, GMC : No warppoints
Format settings, Matrix : Custom
Codec ID : XVID
Codec ID/Hint : XviD
Duration : 1h 32mn
Bit rate : 858 Kbps
Width : 720 pixels
Height : 400 pixels
Display aspect ratio : 16:9
Frame rate : 25.000 fps
Color space : YUV
Chroma subsampling : 4:2:0
Bit depth : 8 bits
Scan type : Progressive
Compression mode : Lossy
Bits/(Pixel*Frame) : 0.119
Stream size : 570 MiB (81%)
Writing library : XviD 1.2.1 (UTC 2008-12-04)
Audio
ID : 1
Format : AC-3
Format/Info : Audio Coding 3
Mode extension : CM (complete main)
Format settings, Endianness : Big
Codec ID : 2000
Duration : 1h 32mn
Bit rate mode : Constant
Bit rate : 192 Kbps
Channel(s) : 2 channels
Channel positions : Front: L R
Sampling rate : 48.0 KHz
Bit depth : 16 bits
Compression mode : Lossy
Stream size : 128 MiB (18%)
Alignment : Split accross interleaves
Interleave, duration : 40 ms (1.00 video frame)
Interleave, preload duration : 500 ms

Скриншоты

[Цитировать]



Показать сообщения:    

Текущее время: 05-Дек 07:35

Часовой пояс: UTC + 3


Вы не можете начинать темы
Вы не можете отвечать на сообщения
Вы не можете редактировать свои сообщения
Вы не можете удалять свои сообщения
Вы не можете голосовать в опросах
Вы не можете прикреплять файлы к сообщениям
Вы не можете скачивать файлы

!ВНИМАНИЕ!
Сайт не предоставляет электронные версии произведений, а занимается лишь коллекционированием и каталогизацией ссылок, присылаемых и публикуемых на форуме нашими читателями. Если вы являетесь правообладателем какого-либо представленного материала и не желаете, чтобы ссылка на него находилась в нашем каталоге, свяжитесь с нами, и мы незамедлительно удалим ее. Файлы для обмена на трекере предоставлены пользователями сайта, и администрация не несет ответственности за их содержание. Просьба не заливать файлы, защищенные авторскими правами, а также файлы нелегального содержания!