[ Today is free to download without increasing Download ]

DL-List and Torrent activity
Сказка о царе Салтане / The Tale of Tsar Saltan (1984) HDTVRip [720p] от SDIncorporation | P
Информация о фильме
Русское название: Сказка о царе Салтане
Оригинальное название: Сказка о царе Салтане
Страна: СССР
Год выпуска: 1984
Жанр: Мультфильм, Сказка
Перевод: Не требуется
Режиссер: Иван Иванов-Вано и Лев Мильчин
Работа над релизом: Nod33Eset(retvil)
О фильме:
Эта сказка, благодаря гению Александра Пушкина, великого поэта России, известна детям многих стран мира. В ней переживают удивительные приключения отважный царевич Гвидон, тридцать три богатыря, выходящих из пены морской под предводительством дядьки Черномора, прекрасная царевна-Лебедь, заколдованная злым волшебником, и, конечно, царь Салтан, поначалу разрушивший свое семейное счастье, но затем чудесным образом вновь вернувший его.-Продолжительность: 00:56:16
Качество видео: HDTVRip 720p
Видеокодек: AVC
Формат: MKV
Битрейт видео: ~4800 Kbps
Размер кадра: 952x720 pixels
Аудиокодек: AC3
Битрейт аудио: 224 Kbps
Аудио #1: Русский (48 kHz, AC3 Dolby Digital, 2 channels, 224 Kbps) — Оригинал-


Unique ID : 245601997931086340930331167876902477575 (0xB8C5396697936F67A436CA48C392DF07)
Complete name : The.Tale.of.Tsar.Saltan.720p-LQ.1984.Russian.SDIncorporation.mkv
Format : Matroska
Format version : Version 4 / Version 2
File size : 1.78 GiB
Duration : 53mn 16s
Overall bit rate mode : Variable
Overall bit rate : 4 796 Kbps
Movie name : The Tale of Tsar Saltan [720p-LQ] (1984) © SDIncorporation
Encoded date : UTC 2016-03-18 16:32:33
Writing application : mkvmerge v8.9.0 ('Father Daughter') 64bit
Writing library : libebml v1.3.3 + libmatroska v1.4.4
ID : 1
Format : AVC
Format/Info : Advanced Video Codec
Format profile : Main@L3.1
Format settings, CABAC : Yes
Format settings, ReFrames : 3 frames
Duration : 53mn 12s
Bit rate mode : Variable
Bit rate : 4 576 Kbps
Maximum bit rate : 16.0 Mbps
Width : 952 pixels
Height : 720 pixels
Display aspect ratio : 4:3
Original display aspect rat : 16:9
Frame rate mode : Constant
Frame rate : 25.000 fps
Standard : NTSC
Color space : YUV
Chroma subsampling : 4:2:0
Bit depth : 8 bits
Scan type : Progressive
Bits/(Pixel*Frame) : 0.267
Stream size : 1.70 GiB (95%)
Title : Video
Default : Yes
Forced : No
Color range : Limited
ID : 2
Format : AC-3
Format/Info : Audio Coding 3
Mode extension : CM (complete main)
Format settings, Endianness : Big
Codec ID : A_AC3
Duration : 53mn 16s
Bit rate mode : Constant
Bit rate : 224 Kbps
Channel(s) : 2 channels
Channel positions : Front: L R
Sampling rate : 48.0 KHz
Frame rate : 31.250 fps (1536 spf)
Compression mode : Lossy
Stream size : 85.4 MiB (5%)
Title : Russian
Language : Russian
Default : Yes
Forced : No


Время раздачи: С 8:00 до 22:00
Релиз от: ©SDIncorporation


Display posts:    

Current time is: 24-Oct 08:16

All times are UTC + 3

You cannot post new topics in this forum
You cannot reply to topics in this forum
You cannot edit your posts in this forum
You cannot delete your posts in this forum
You cannot vote in polls in this forum
You cannot attach files in this forum
You cannot download files in this forum

The site does not give electronic versions of products, and is engaged only in a collecting and cataloguing of the references sent and published at a forum by our readers. If you are the legal owner of any submitted material and do not wish that the reference to it was in our catalogue, contact us and we shall immediately remove her. Files for an exchange on tracker are given by users of a site, and the administration does not bear the responsibility for their maintenance. The request to not fill in the files protected by copyrights, and also files of the illegal maintenance!