[ Сегодня идет свободное скачивание без начисления Download ]


Статистика раздачи
Скачал: [ 1 ]
 
   
 
Top  
 
 
- Юлия Литвина | Создание крутой анимации в Adobe Edge Animate (2015) PCRec [H.264]- Автор (режиссер): Юлия Литвина
Жанр: Вэб-дизайн, Adobe Edge Animate
Доп. материалы: Есть
Описание:
Adobe Edge Animate — это программа для создания графики, анимации и интерактивного контента для веб-сайтов без знания HTML5, JavaScript и CSS. Для использования как в Adobe Muse, так и отдельно.
Edge Animate доступен, прост в использовании,обладает мощным потенциалом.
И позволяет создавать: анимацию, интерактивный контент для сайтов, баннеры, кнопки, встраивание видео и аудио.
Анимация одинаково хорошо выглядит на планшетах, телефонах и компьютерах. Встраивается в Adobe Muse.

Программа курса:

Создание анимации любой сложности в Adobe Edge Animate
Установка программы
Рабочее пространство-сцена
Параллакс вертикальный
Параллакс горизонтальный
Просмотр анимации в браузере
Публиация в html5 на хостинге
Создание баннеров с зацикленной анимацией и текстом с плавным появлением и т.п.
Обработка аудио и видео в Adobe Edge Animate
Интеграция видео и аудио в Adobe Muse
Создание персонального курсора для отдельного элемента баннера или сайта
Как вставить ссылку в проект
Создание анимации движения
Взаимодействие курсора с анимацией
Установка шрифтов к анимации и баннеру
Установка видео конвертера
Как вставить анимацию в wordpress
Анимация вращения объекта
Работа с векторной графикой
Работа с изображениями
Плавное появление и исчезновение объекта
Импорт графики и обработка
Создание фотогалереи для сайта
Настройки тени, градиенты, включение и выключение эффектов, перспектива, скругление углов
Создание интерактивного баннера с видео-эффектом
Использование обработчика событий нажатием мыши
Установка шрифтов к анимации и баннеру
Создание полосы загрузки для анимационного ролика
Интеграция в Adobe Muse
Виды сохранения и публикации
Хостинг и домен
Регистрация домена и хостинга
Установка программы ftp-клиент
Загрузка анимации в Интернет через ftp-клиент
Публикация анимации с помощью Adobe Muse CC
Продолжительность: 01:48:46
Качество видео: PCRec
Видео: AVC/H.264, 1280x718 - 1366x768, ~105 - 283 Kbps
Аудио: AAC, 2 ch, 50,5 - 126 Kbps, CBR

Mediainfo:

Общее
Полное имя                               : C:\Создание крутой анимации в Adobe Edge Animate - 2015\Видео с уникальным дизайном\Видео с уникальным дизайном.mp4
Формат                                   : MPEG-4
Профиль формата                          : Base Media / Version 2
Идентификатор кодека                     : mp42 (isom/mp42)
Размер файла                             : 44,1 Мбайт
Продолжительность                        : 20 м.
Режим общего битрейта                    : Переменный
Общий поток                              : 305 Кбит/сек
Дата кодирования                         : UTC 2015-03-23 15:03:53
Дата пометки                             : UTC 2015-03-23 15:03:53
Видео
Идентификатор                            : 1
Формат                                   : AVC
Формат/Информация                        : Advanced Video Codec
Профиль формата                          : [url=mailto:Main@L3.1]Main@L3.1[/url]
Параметр CABAC формата                   : Да
Параметр ReFrames формата                : 3 кадра
Идентификатор кодека                     : avc1
Идентификатор кодека/Информация          : Advanced Video Coding
Продолжительность                        : 20 м.
Продолжительность оригинала              : 20 м.
Битрейт                                  : 177 Кбит/сек
Ширина                                   : 1280 пикселей
Высота                                   : 718 пикселей
Соотношение сторон                       : 16:9
Режим частоты кадров                     : Переменный
Частота кадров                           : 30,000 кадров/сек
Минимальная частота кадров               : 30,000 кадров/сек
Максимальная частота кадров              : 30,030 кадров/сек
Стандарт вещания                         : NTSC
Цветовое пространство                    : YUV
Субдискретизация насыщенности            : 4:2:0
Битовая глубина                          : 8 бит
Тип развёртки                            : Прогрессивная
Бит/(Пиксели*Кадры)                      : 0.006
Размер потока                            : 25,5 Мбайт (58%)
Размер потока оригинала                  : 25,5 Мбайт (58%)
Язык                                     : English
Дата кодирования                         : UTC 2015-03-23 15:03:53
Дата пометки                             : UTC 2015-03-23 15:03:53
Цветовой диапазон                        : Limited
mdhd_Duration                            : 1211300
Аудио
Идентификатор                            : 2
Формат                                   : AAC
Формат/Информация                        : Advanced Audio Codec
Профиль формата                          : LC
Идентификатор кодека                     : 40
Продолжительность                        : 20 м.
Продолжительность оригинала              : 20 м.
Вид битрейта                             : Переменный
Битрейт                                  : 126 Кбит/сек
Максимальный битрейт                     : 312 Кбит/сек
Каналы                                   : 2 канала
Расположение каналов                     : Front: L R
Частота                                  : 44,1 КГц
Частота кадров                           : 43,066 кадра/сек (1024 spf)
Метод сжатия                             : С потерями
Размер потока                            : 18,1 Мбайт (41%)
Размер потока оригинала                  : 18,1 Мбайт (41%)
Язык                                     : English
Дата кодирования                         : UTC 2015-03-23 15:03:53
Дата пометки                             : UTC 2015-03-23 15:03:53
mdhd_Duration                            : 1211339
Общее
Полное имя                               : C:\Создание крутой анимации в Adobe Edge Animate - 2015\Быстрая анимация PIN\Быстрая анимация PIN.mp4
Формат                                   : MPEG-4
Профиль формата                          : Base Media / Version 2
Идентификатор кодека                     : mp42 (isom/mp42)
Размер файла                             : 6,29 Мбайт
Продолжительность                        : 3 м. 19 с.
Режим общего битрейта                    : Переменный
Общий поток                              : 265 Кбит/сек
Название фильма                          : Untitled
Дата кодирования                         : UTC 2015-03-12 10:40:39
Дата пометки                             : UTC 2015-03-12 10:40:39
Видео
Идентификатор                            : 1
Формат                                   : AVC
Формат/Информация                        : Advanced Video Codec
Профиль формата                          : [url=mailto:Baseline@L3.2]Baseline@L3.2[/url]
Параметр CABAC формата                   : Нет
Параметр ReFrames формата                : 3 кадра
Идентификатор кодека                     : avc1
Идентификатор кодека/Информация          : Advanced Video Coding
Продолжительность                        : 3 м. 19 с.
Продолжительность оригинала              : 3 м. 19 с.
Битрейт                                  : 208 Кбит/сек
Ширина                                   : 1366 пикселей
Высота                                   : 768 пикселей
Соотношение сторон                       : 16:9
Режим частоты кадров                     : Переменный
Частота кадров                           : 30,000 кадров/сек
Минимальная частота кадров               : 30,000 кадров/сек
Максимальная частота кадров              : 30,030 кадров/сек
Стандарт вещания                         : NTSC
Цветовое пространство                    : YUV
Субдискретизация насыщенности            : 4:2:0
Битовая глубина                          : 8 бит
Тип развёртки                            : Прогрессивная
Бит/(Пиксели*Кадры)                      : 0.007
Размер потока                            : 4,95 Мбайт (79%)
Размер потока оригинала                  : 4,95 Мбайт (79%)
Язык                                     : English
Дата кодирования                         : UTC 2015-03-12 10:40:39
Дата пометки                             : UTC 2015-03-12 10:40:39
Цветовой диапазон                        : Limited
mdhd_Duration                            : 199500
Аудио
Идентификатор                            : 2
Формат                                   : AAC
Формат/Информация                        : Advanced Audio Codec
Профиль формата                          : LC
Идентификатор кодека                     : 40
Продолжительность                        : 3 м. 19 с.
Продолжительность оригинала              : 3 м. 19 с.
Вид битрейта                             : Переменный
Битрейт                                  : 53,6 Кбит/сек
Максимальный битрейт                     : 178 Кбит/сек
Каналы                                   : 2 канала
Расположение каналов                     : Front: L R
Частота                                  : 44,1 КГц
Частота кадров                           : 43,066 кадра/сек (1024 spf)
Метод сжатия                             : С потерями
Размер потока                            : 1,28 Мбайт (20%)
Размер потока оригинала                  : 1,28 Мбайт (20%)
Язык                                     : English
Дата кодирования                         : UTC 2015-03-12 10:40:39
Дата пометки                             : UTC 2015-03-12 10:40:39
mdhd_Duration                            : 199529
Скриншоты:

[Цитировать]



Показать сообщения:    

Текущее время: 09-Дек 06:44

Часовой пояс: UTC + 3


Вы не можете начинать темы
Вы не можете отвечать на сообщения
Вы не можете редактировать свои сообщения
Вы не можете удалять свои сообщения
Вы не можете голосовать в опросах
Вы не можете прикреплять файлы к сообщениям
Вы не можете скачивать файлы

!ВНИМАНИЕ!
Сайт не предоставляет электронные версии произведений, а занимается лишь коллекционированием и каталогизацией ссылок, присылаемых и публикуемых на форуме нашими читателями. Если вы являетесь правообладателем какого-либо представленного материала и не желаете, чтобы ссылка на него находилась в нашем каталоге, свяжитесь с нами, и мы незамедлительно удалим ее. Файлы для обмена на трекере предоставлены пользователями сайта, и администрация не несет ответственности за их содержание. Просьба не заливать файлы, защищенные авторскими правами, а также файлы нелегального содержания!