[ Сегодня идет свободное скачивание без начисления Download ]


Статистика раздачи
Нет
 
   
 
Top  
 
 
Воины Эллады / Hellhounds (2009) BDRip 1080p Название: Воины Эллады
Оригинальное название: Hellhounds
Год выпуска: 2009
Жанр: Ужасы, фэнтези, приключения
Выпущено: Канада, Muse Entertainment Enterprises, RHI Entertainment Inc.
Режиссер: Рик Шродер
В ролях: Скотт Элрод, Адам Батчер, Аманда Брукс, Джеймс А. Вудс, Эндрю Ховард, Оливия Нита, Марьюс Киву, Индра Ове, Ана Попеску, Бен Кросс
О фильме: В разгар королевской свадьбы, древнегреческая принцесса-невеста отравлена завистливым шафером жениха и попадает в царство мертвых, где становится рабыней властителя Аида. Намереваясь освободить возлюбленную, храбрый воин отправляется в подземный мир, чтобы сразиться с жесточайшими существами в мире — гончими ада.

Качество: BDRip 1080p
Видео: MPEG-4 AVC, 12500 Кбит/с, 1920x1080
Аудио: Русский (AC3, 6 ch, 384 Кбит/с), (AC3, 2 ch, 192 Кбит/с), украинский (AC3, 2 ch, 192 Кбит/с), английский, немецкий (AC3, 6 ch, 448 Кбит/с)
Продолжительность: 01:23:31
Перевод 1: Профессиональны многоголосый закадровый, лицензия
Перевод 2: Профессиональны многоголосый закадровый, ТВ3
Семпл

Скриншоты

MediaInfo

Общее
Уникальный идентификатор : 209080169856109241980088295207885137777 (0x9D4B6040E73B83D19CE61AB301CCE771)
Полное имя : D:uTorrentVoiny.Ellady.2009.BDRip.1080p.mkv
Формат : Matroska
Версия формата : Version 4 / Version 2
Размер файла : 8,26 Гбайт
Продолжительность : 1 ч. 23 м.
Общий поток : 14,2 Мбит/сек
Дата кодирования : UTC 2016-04-19 10:48:05 / UTC 2016-04-02T18:42:12Z
Программа кодирования : mkvmerge v8.9.0 ('Father Daughter') 64bit
Библиотека кодирования : libebml v1.3.3 + libmatroska v1.4.4 / Lavf55.12.0
Видео
Идентификатор : 1
Формат : AVC
Формат/Информация : Advanced Video Codec
Профиль формата : High@L4.1
Параметр CABAC формата : Да
Параметр ReFrames формата : 4 кадра
Идентификатор кодека : V_MPEG4/ISO/AVC
Продолжительность : 1 ч. 23 м.
Битрейт : 12,5 Мбит/сек
Ширина : 1920 пикселей
Высота : 1080 пикселей
Соотношение сторон : 16:9
Режим частоты кадров : Постоянный
Частота кадров : 25,000 кадров/сек
Цветовое пространство : YUV
Субдискретизация насыщенности : 4:2:0
Битовая глубина : 8 бит
Тип развёртки : Прогрессивная
Бит/(Пиксели*Кадры) : 0.241
Размер потока : 7,13 Гбайт (86%)
Заголовок : BDRip by Silverok
Библиотека кодирования : x264 core 142 r2479 dd79a61
Настройки программы : cabac=1 / ref=4 / deblock=1:-3:-3 / analyse=0x3:0x113 / me=umh / subme=8 / psy=1 / psy_rd=2.00:0.70 / mixed_ref=1 / me_range=16 / chroma_me=1 / trellis=1 / 8x8dct=1 / cqm=0 / deadzone=21,11 / fast_pskip=1 / chroma_qp_offset=-4 / threads=12 / lookahead_threads=2 / sliced_threads=0 / nr=0 / decimate=1 / interlaced=0 / bluray_compat=0 / constrained_intra=0 / bframes=3 / b_pyramid=2 / b_adapt=2 / b_bias=0 / direct=3 / weightb=1 / open_gop=0 / weightp=2 / keyint=250 / keyint_min=25 / scenecut=40 / intra_refresh=0 / rc_lookahead=50 / rc=2pass / mbtree=1 / bitrate=12500 / ratetol=1.0 / qcomp=0.60 / qpmin=0 / qpmax=69 / qpstep=4 / cplxblur=20.0 / qblur=0.5 / vbv_maxrate=62500 / vbv_bufsize=78125 / nal_hrd=none / filler=0 / ip_ratio=1.40 / aq=1:1.20
Default : Да
Forced : Нет
Цветовой диапазон : Limited
Основные цвета : BT.709
Характеристики трансфера : BT.709
Коэффициенты матрицы : BT.709
Statistics Tags Issue : mkvmerge v8.9.0 ('Father Daughter') 64bit 2016-04-19 10:48:05 / mkvmerge v8.9.0 ('Father Daughter') 64bit 2016-04-19 10:48:05 / UTC 2016-04-02T18:42:12Z
FromStats_BitRate : 12499347
FromStats_Duration : 01:23:31.200000000
FromStats_FrameCount : 125280
FromStats_StreamSize : 7829591455
Аудио #1
Идентификатор : 2
Формат : AC-3
Формат/Информация : Audio Coding 3
Расширение режима : CM (complete main)
Параметр Endianness формата : Big
Идентификатор кодека : A_AC3
Продолжительность : 1 ч. 23 м.
Вид битрейта : Постоянный
Битрейт : 384 Кбит/сек
Каналы : 6 каналов
Расположение каналов : Front: L C R, Side: L R, LFE
Частота : 48,0 КГц
Частота кадров : 31,250 кадров/сек (1536 spf)
Метод сжатия : С потерями
Размер потока : 229 Мбайт (3%)
Заголовок : Многоголосый закадровый, лицензия
Язык : Russian
Default : Да
Forced : Нет
Statistics Tags Issue : mkvmerge v8.9.0 ('Father Daughter') 64bit 2016-04-19 10:48:05 / mkvmerge v8.9.0 ('Father Daughter') 64bit 2016-04-19 10:48:05 / UTC 2016-04-02T18:42:12Z
FromStats_BitRate : 384000
FromStats_Duration : 01:23:31.328000000
FromStats_FrameCount : 156604
FromStats_StreamSize : 240543744
Аудио #2
Идентификатор : 3
Формат : AC-3
Формат/Информация : Audio Coding 3
Расширение режима : CM (complete main)
Параметр Endianness формата : Big
Идентификатор кодека : A_AC3
Продолжительность : 1 ч. 23 м.
Вид битрейта : Постоянный
Битрейт : 192 Кбит/сек
Каналы : 2 канала
Расположение каналов : Front: L R
Частота : 48,0 КГц
Частота кадров : 31,250 кадров/сек (1536 spf)
Метод сжатия : С потерями
Размер потока : 115 Мбайт (1%)
Заголовок : Многоголосый закадровый, ТВ3
Язык : Russian
Default : Нет
Forced : Нет
Statistics Tags Issue : mkvmerge v8.9.0 ('Father Daughter') 64bit 2016-04-19 10:48:05 / mkvmerge v8.9.0 ('Father Daughter') 64bit 2016-04-19 10:48:05 / UTC 2016-04-02T18:42:12Z
FromStats_BitRate : 192000
FromStats_Duration : 01:23:31.328000000
FromStats_FrameCount : 156604
FromStats_StreamSize : 120271872
Аудио #3
Идентификатор : 4
Формат : AC-3
Формат/Информация : Audio Coding 3
Расширение режима : CM (complete main)
Параметр Endianness формата : Big
Идентификатор кодека : A_AC3
Продолжительность : 1 ч. 23 м.
Вид битрейта : Постоянный
Битрейт : 192 Кбит/сек
Каналы : 2 канала
Расположение каналов : Front: L R
Частота : 48,0 КГц
Частота кадров : 31,250 кадров/сек (1536 spf)
Метод сжатия : С потерями
Размер потока : 115 Мбайт (1%)
Заголовок : Stereo
Язык : Ukrainian
Default : Нет
Forced : Нет
Statistics Tags Issue : mkvmerge v8.9.0 ('Father Daughter') 64bit 2016-04-19 10:48:05 / mkvmerge v8.9.0 ('Father Daughter') 64bit 2016-04-19 10:48:05 / UTC 2016-04-02T18:42:12Z
FromStats_BitRate : 192000
FromStats_Duration : 01:23:31.328000000
FromStats_FrameCount : 156604
FromStats_StreamSize : 120271872
Аудио #4
Идентификатор : 5
Формат : AC-3
Формат/Информация : Audio Coding 3
Расширение режима : CM (complete main)
Параметр Endianness формата : Big
Идентификатор кодека : A_AC3
Продолжительность : 1 ч. 23 м.
Вид битрейта : Постоянный
Битрейт : 448 Кбит/сек
Каналы : 6 каналов
Расположение каналов : Front: L C R, Side: L R, LFE
Частота : 48,0 КГц
Частота кадров : 31,250 кадров/сек (1536 spf)
Метод сжатия : С потерями
Задержка видео : -5 мс.
Размер потока : 268 Мбайт (3%)
Заголовок : Surround
Язык : English
Default : Нет
Forced : Нет
Statistics Tags Issue : mkvmerge v8.9.0 ('Father Daughter') 64bit 2016-04-19 10:48:05 / mkvmerge v8.9.0 ('Father Daughter') 64bit 2016-04-19 10:48:05 / UTC 2016-04-02T18:42:12Z
FromStats_BitRate : 448000
FromStats_Duration : 01:23:31.296000000
FromStats_FrameCount : 156603
FromStats_StreamSize : 280632576
Аудио #5
Идентификатор : 6
Формат : AC-3
Формат/Информация : Audio Coding 3
Расширение режима : CM (complete main)
Параметр Endianness формата : Big
Идентификатор кодека : A_AC3
Продолжительность : 1 ч. 23 м.
Вид битрейта : Постоянный
Битрейт : 448 Кбит/сек
Каналы : 6 каналов
Расположение каналов : Front: L C R, Side: L R, LFE
Частота : 48,0 КГц
Частота кадров : 31,250 кадров/сек (1536 spf)
Метод сжатия : С потерями
Задержка видео : -5 мс.
Размер потока : 268 Мбайт (3%)
Заголовок : Surround
Язык : German
Default : Нет
Forced : Нет
Statistics Tags Issue : mkvmerge v8.9.0 ('Father Daughter') 64bit 2016-04-19 10:48:05 / mkvmerge v8.9.0 ('Father Daughter') 64bit 2016-04-19 10:48:05 / UTC 2016-04-02T18:42:12Z
FromStats_BitRate : 448000
FromStats_Duration : 01:23:31.296000000
FromStats_FrameCount : 156603
FromStats_StreamSize : 280632576
Меню
00:00:00.000 : :Chapter 1
00:01:13.600 : :Chapter 2
00:09:59.680 : :Chapter 3
00:16:35.680 : :Chapter 4
00:22:55.360 : :Chapter 5
00:32:29.440 : :Chapter 6
00:38:18.880 : :Chapter 7
00:45:14.560 : :Chapter 8
00:54:01.120 : :Chapter 9
01:05:38.560 : :Chapter 10
01:17:19.360 : :Chapter 11
01:22:30.400 : :Chapter 12

[Цитировать]



Показать сообщения:    

Текущее время: 23-Июн 00:42

Часовой пояс: UTC + 6


Вы не можете начинать темы
Вы не можете отвечать на сообщения
Вы не можете редактировать свои сообщения
Вы не можете удалять свои сообщения
Вы не можете голосовать в опросах
Вы не можете прикреплять файлы к сообщениям
Вы не можете скачивать файлы

!ВНИМАНИЕ!
Сайт не предоставляет электронные версии произведений, а занимается лишь коллекционированием и каталогизацией ссылок, присылаемых и публикуемых на форуме нашими читателями. Если вы являетесь правообладателем какого-либо представленного материала и не желаете, чтобы ссылка на него находилась в нашем каталоге, свяжитесь с нами, и мы незамедлительно удалим ее. Файлы для обмена на трекере предоставлены пользователями сайта, и администрация не несет ответственности за их содержание. Просьба не заливать файлы, защищенные авторскими правами, а также файлы нелегального содержания!