[ Сегодня идет свободное скачивание без начисления Download ]


Статистика раздачи
Качаю: [ 2 ]
Скачал: [ 6 ]
 
   
 
Top  
 
 
- Алексей Климанов | Создание сайта под ключ на заказ (2016) PCRec [H.264/720p] - Автор (режиссер): Алексей Климанов
Жанр: Вэб-дизайн
Доп. материалы: Есть
Описание:
Из данного курса вы узнаете, как на заказ создавать сайт с нуля и до 100%-го результата. Самое главное в этом курсе то, что показан весь процесс – от момента, когда дизайн есть только в виде картинки, и до момента, когда сайт полностью готов. В качестве основной CMS для разработки сайта используется «MODx Revolution».
Продолжительность: 18:31:24
Качество видео: PCRec
Видео: AVC/H.264, 1278x720 - 1280x720, ~478 - 892 Kbps
Аудио: AAC, 1, 2 ch, 144 - 192 Kbps, VBR

Программа курса:

Урок 01. Техническое задание и разработка прототипа
Урок 02. Эскиз. Рисуем прототип секций (часть 1)
Урок 03. Эскиз. Рисуем прототип секций (часть 2)
Урок 04. Дизайн шапки
Урок 05. Дизайн первой секции
Урок 06. Дизайн второй секции
Урок 07. Дизайн третьей секции
Урок 08. Дизайн четвертой секции
Урок 09. Дизайн шестой и седьмой секций
Урок 10. Дизайн секций Отзывы, Контакты и подвала
Урок 11. Подготовка Front-End окружения. Начинаем верстать макет
Урок 12. Начинаем верстать шапку
Урок 13. Верстка шапки
Урок 14. Верстка. Адаптивная шапка + адаптивное меню
Урок 15. Верстка. Полоса преимуществ
Урок 16. Верстка. Секция Наш профиль
Урок 17. Верстка. Плавная pop-up галерея (Magnific-Popup)
Урок 18. Верстка. animateNumber + верстка секции Направления
Урок 19. Верстка. Секция Наши работы + Pop-up
Урок 20. Верстка. Секция Поставляемое оборудование. Карусель
Урок 21. Верстка. Секции Скидки и Менеджеры
Урок 22. Верстка. Карусель брендов
Урок 23. Верстка. Отзывы
Урок 24. Верстка. Контакты
Урок 25. Обновление Front-End рабочего «Gulp» окружения и установка «Browsersync»
Доп. урок: Быстрое создание скетча в wireframe.cc
Доп. урок: Стартовый шаблон для верстки сайтов _optimized_gulp_sass (запуск, решение проблем, описание)

Mediainfo:

Общее
Полное имя                               : C:\Создание сайта под ключ на заказ - 2016\Доп. материалы\Быстрое создание скетча в wireframe.cc.mp4
Формат                                   : MPEG-4
Профиль формата                          : Base Media
Идентификатор кодека                     : isom (isom/mp42)
Размер файла                             : 40,4 Мбайт
Продолжительность                        : 8 м. 18 с.
Режим общего битрейта                    : Переменный
Общий поток                              : 681 Кбит/сек
Дата кодирования                         : UTC 2015-04-26 10:30:15
Дата пометки                             : UTC 2015-04-26 10:30:15
gsst                                     : 0
gstd                                     : 506078
Видео
Идентификатор                            : 1
Формат                                   : AVC
Формат/Информация                        : Advanced Video Codec
Профиль формата                          : [url=mailto:[email protected]][email protected][/url]
Параметр CABAC формата                   : Да
Параметр ReFrames формата                : 1 кадр
Параметр GOP формата                     : M=1, N=60
Идентификатор кодека                     : avc1
Идентификатор кодека/Информация          : Advanced Video Coding
Продолжительность                        : 8 м. 18 с.
Битрейт                                  : 484 Кбит/сек
Ширина                                   : 1278 пикселей
Высота                                   : 720 пикселей
Соотношение сторон                       : 16:9
Режим частоты кадров                     : Постоянный
Частота кадров                           : 30,000 кадров/сек
Цветовое пространство                    : YUV
Субдискретизация насыщенности            : 4:2:0
Битовая глубина                          : 8 бит
Тип развёртки                            : Прогрессивная
Бит/(Пиксели*Кадры)                      : 0.018
Размер потока                            : 28,8 Мбайт (71%)
Язык                                     : English
Дата кодирования                         : UTC 2015-04-26 10:30:15
Дата пометки                             : UTC 2015-04-26 10:30:15
mdhd_Duration                            : 498233
Аудио
Идентификатор                            : 2
Формат                                   : AAC
Формат/Информация                        : Advanced Audio Codec
Профиль формата                          : LC
Идентификатор кодека                     : 40
Продолжительность                        : 8 м. 18 с.
Продолжительность оригинала              : 8 м. 18 с.
Вид битрейта                             : Переменный
Битрейт                                  : 192 Кбит/сек
Каналы                                   : 2 канала
Расположение каналов                     : Front: L R
Частота                                  : 44,1 КГц
Частота кадров                           : 43,066 кадра/сек (1024 spf)
Метод сжатия                             : С потерями
Размер потока                            : 11,4 Мбайт (28%)
Размер потока оригинала                  : 11,4 Мбайт (28%)
Язык                                     : English
Дата кодирования                         : UTC 2015-04-26 10:30:15
Дата пометки                             : UTC 2015-04-26 10:30:15
mdhd_Duration                            : 498231
Общее
Полное имя                               : C:\Создание сайта под ключ на заказ - 2016\Урок 17. Верстка. Плавная pop-up галерея (Magnific-Popup).mp4
Формат                                   : MPEG-4
Профиль формата                          : Base Media
Идентификатор кодека                     : isom (isom/mp42)
Размер файла                             : 203 Мбайт
Продолжительность                        : 26 м.
Режим общего битрейта                    : Переменный
Общий поток                              : 1089 Кбит/сек
Дата кодирования                         : UTC 2015-12-19 12:36:31
Дата пометки                             : UTC 2015-12-19 12:36:31
gsst                                     : 0
gstd                                     : 1604961
Видео
Идентификатор                            : 1
Формат                                   : AVC
Формат/Информация                        : Advanced Video Codec
Профиль формата                          : [url=mailto:[email protected]][email protected][/url]
Параметр CABAC формата                   : Да
Параметр ReFrames формата                : 1 кадр
Параметр GOP формата                     : M=1, N=60
Идентификатор кодека                     : avc1
Идентификатор кодека/Информация          : Advanced Video Coding
Продолжительность                        : 26 м.
Продолжительность оригинала              : 26 м.
Битрейт                                  : 892 Кбит/сек
Ширина                                   : 1280 пикселей
Высота                                   : 720 пикселей
Соотношение сторон                       : 16:9
Режим частоты кадров                     : Постоянный
Частота кадров                           : 27,540 кадров/сек
Цветовое пространство                    : YUV
Субдискретизация насыщенности            : 4:2:0
Битовая глубина                          : 8 бит
Тип развёртки                            : Прогрессивная
Бит/(Пиксели*Кадры)                      : 0.035
Размер потока                            : 166 Мбайт (82%)
Размер потока оригинала                  : 166 Мбайт (82%)
Язык                                     : English
Дата кодирования                         : UTC 2015-12-19 12:36:31
Дата пометки                             : UTC 2015-12-19 12:36:31
mdhd_Duration                            : 1560582
Аудио
Идентификатор                            : 2
Формат                                   : AAC
Формат/Информация                        : Advanced Audio Codec
Профиль формата                          : LC
Идентификатор кодека                     : 40
Продолжительность                        : 26 м.
Duration_FirstFrame                      : -10 мс.
Вид битрейта                             : Переменный
Битрейт                                  : 192 Кбит/сек
Каналы                                   : 2 канала
Расположение каналов                     : Front: L R
Частота                                  : 44,1 КГц
Частота кадров                           : 43,066 кадра/сек (1024 spf)
Метод сжатия                             : С потерями
Размер потока                            : 35,7 Мбайт (18%)
Язык                                     : English
Дата кодирования                         : UTC 2015-12-19 12:36:31
Дата пометки                             : UTC 2015-12-19 12:36:31
mdhd_Duration                            : 1560580
Скриншоты:

[Цитировать]



Показать сообщения:    

Текущее время: 06-Дек 15:12

Часовой пояс: UTC + 3


Вы не можете начинать темы
Вы не можете отвечать на сообщения
Вы не можете редактировать свои сообщения
Вы не можете удалять свои сообщения
Вы не можете голосовать в опросах
Вы не можете прикреплять файлы к сообщениям
Вы не можете скачивать файлы

!ВНИМАНИЕ!
Сайт не предоставляет электронные версии произведений, а занимается лишь коллекционированием и каталогизацией ссылок, присылаемых и публикуемых на форуме нашими читателями. Если вы являетесь правообладателем какого-либо представленного материала и не желаете, чтобы ссылка на него находилась в нашем каталоге, свяжитесь с нами, и мы незамедлительно удалим ее. Файлы для обмена на трекере предоставлены пользователями сайта, и администрация не несет ответственности за их содержание. Просьба не заливать файлы, защищенные авторскими правами, а также файлы нелегального содержания!