[ Сегодня идет свободное скачивание без начисления Download ]


Статистика раздачи
Нет
 
   
 
Top  
 
 
Царство небесное [Режиссёрская версия] / Kingdom of Heaven [Director's Cut]«Be without fear in the face of your enemies. Safeguard the helpless, and do no wrong»
Год выпуска: 2005
Страна: США, Испания
Производство: 20th Century Fox Film Corporation, Babelsberg Film GmbH, BK, Calle Cruzada, Dune Films, Inside Track 3, Kanzaman S.A., KOH, Reino del Cielo, Scott Free Productions
Жанр: боевик, приключения, военный, история
Режиссер: Ридли Скотт
В ролях: Орландо Блум, Ева Грин, Лиам Нисон, Дэвид Тьюлис, Джереми Айронс, Эрик Эбони, Натали Кокс, Филип Гленистер, Мартин Хэнкок, Бронсон Уэбб, Кевин МакКидд, Николай Костер-Валдау, Стивен Робертсон, Мартон Чокаш, Александр Сиддинг, Велибор Топик, Майкл Шэйффер, Майкл Шин, Брендан Глисон, Нассер Мемарзиа, Джоко Ахола
Перевод: Профессиональный (полное дублирование) +Профессиональный (многоголосый, закадровый) + Любительский (одноголосый) + Субтитры
Субтитры: Русские, Английские
Описание: Юный оружейник Бэлиан вынужден бежать со своей родины. Он присоединяется к отряду крестоносцев, которым руководит его отец. Но, в одной из битв, отец получает тяжелую рану и перед смертью присваивает своему сыну сан рыцаря, и тот клянется в верности королю Иерусалима.
[kp]2602[/kp] [imdb]tt0320661[/imdb]
Качество: BDRip-AVC
Продолжительность: 03:09:33
Формат: MKV
Видео кодек: AVC
Аудио кодек: AC3
Видео: 1108x472 (2.35:1), 23.976 fps, 2 402 kbps avg, 0.192 bit/pixel
Аудио: 48 kHz, АС3, 3/2 (L,C,R,l,r) + LFE ch, ~448.00 kbps avg - (Профессиональный (полное дублирование))
Аудио #2: 48 kHz, АС3, 3/2 (L,C,R,l,r) + LFE ch, ~448.00 kbps avg - (Профессиональный (многоголосый закадровый))
Аудио #3: 48 kHz, АС3, 3/2 (L,C,R,l,r) + LFE ch, ~448.00 kbps avg - (Авторский (одноголосый) (Королёв))
Аудио #4: 48 kHz, АС3, 3/2 (L,C,R,l,r) + LFE ch, ~448.00 kbps avg - (Оригинал)
Премьера (мир): 2 мая 2005
Премьера (РФ): 5 мая 2005, «Гемини Киномир»

Media Info

General
Unique ID                                : 198864820993175930543872677883322339037 (0x959BF8AB48DF76AFB4230CF20C208EDD)
Complete name                            : /Torrents/home/nikkk9501/data/Kingdom of Heaven (2005) BDRip.mkv
Format                                   : Matroska
Format version                           : Version 2
File size                                : 5.56 GiB
Duration                                 : 3h 9mn
Overall bit rate                         : 4 197 Kbps
Movie name                               : Kingdom of Heaven (2005) BDRip
Encoded date                             : UTC 2011-01-24 13:17:10
Writing application                      : mkvmerge v4.4.0 ('Die Wiederkehr') built on Oct 31 2010 21:52:48
Writing library                          : libebml v1.0.0 + libmatroska v1.0.0
Attachment                               : Yes
Video
ID                                       : 1
Format                                   : AVC
Format/Info                              : Advanced Video Codec
Format profile                           : High@L4.0
Format settings, CABAC                   : Yes
Format settings, ReFrames                : 14 frames
Codec ID                                 : V_MPEG4/ISO/AVC
Duration                                 : 3h 9mn
Bit rate                                 : 2 402 Kbps
Width                                    : 1 108 pixels
Height                                   : 472 pixels
Display aspect ratio                     : 2.35:1
Frame rate                               : 23.976 fps
Color space                              : YUV
Chroma subsampling                       : 4:2:0
Bit depth                                : 8 bits
Scan type                                : Progressive
Bits/(Pixel*Frame)                       : 0.192
Stream size                              : 3.07 GiB (55%)
Writing library                          : x264 core 112 r1834+3 ef18685
Encoding settings                        : cabac=1 / ref=14 / deblock=1:-3:-2 / analyse=0x3:0x133 / me=umh / subme=10 / psy=1 / fade_compensate=0.90 / psy_rd=1.05:0.03 / mixed_ref=1 / me_range=32 / chroma_me=1 / trellis=2 / 8x8dct=1 / cqm=0 / deadzone=21,11 / fast_pskip=0 / chroma_qp_offset=-3 / threads=6 / sliced_threads=0 / nr=0 / decimate=0 / interlaced=0 / constrained_intra=0 / fgo=0 / bframes=12 / b_pyramid=2 / b_adapt=2 / b_bias=0 / direct=3 / weightb=1 / open_gop=0 / weightp=2 / keyint=250 / keyint_min=23 / scenecut=40 / intra_refresh=0 / rc_lookahead=120 / rc=2pass / mbtree=1 / bitrate=2402 / ratetol=1.0 / qcomp=0.70 / qpmin=0 / qpmax=51 / qpstep=4 / cplxblur=20.0 / qblur=0.5 / ip_ratio=1.40 / aq=1:0.85
Language                                 : English
Default                                  : Yes
Forced                                   : No
Matrix coefficients                      : BT.709-5, BT.1361, IEC 61966-2-4 709, SMPTE RP177
Audio #1
ID                                       : 2
Format                                   : AC-3
Format/Info                              : Audio Coding 3
Mode extension                           : CM (complete main)
Codec ID                                 : A_AC3
Duration                                 : 3h 9mn
Bit rate mode                            : Constant
Bit rate                                 : 448 Kbps
Channel(s)                               : 6 channels
Channel positions                        : Front: L C R, Side: L R, LFE
Sampling rate                            : 48.0 KHz
Bit depth                                : 16 bits
Compression mode                         : Lossy
Stream size                              : 607 MiB (11%)
Title                                    : Dub+MVO
Language                                 : Russian
Default                                  : Yes
Forced                                   : No
Audio #2
ID                                       : 3
Format                                   : AC-3
Format/Info                              : Audio Coding 3
Mode extension                           : CM (complete main)
Codec ID                                 : A_AC3
Duration                                 : 3h 9mn
Bit rate mode                            : Constant
Bit rate                                 : 448 Kbps
Channel(s)                               : 6 channels
Channel positions                        : Front: L C R, Side: L R, LFE
Sampling rate                            : 48.0 KHz
Bit depth                                : 16 bits
Compression mode                         : Lossy
Stream size                              : 607 MiB (11%)
Title                                    : MVO (Kinomania)
Language                                 : Russian
Default                                  : No
Forced                                   : No
Audio #3
ID                                       : 4
Format                                   : AC-3
Format/Info                              : Audio Coding 3
Mode extension                           : CM (complete main)
Codec ID                                 : A_AC3
Duration                                 : 3h 9mn
Bit rate mode                            : Constant
Bit rate                                 : 448 Kbps
Channel(s)                               : 6 channels
Channel positions                        : Front: L C R, Side: L R, LFE
Sampling rate                            : 48.0 KHz
Bit depth                                : 16 bits
Compression mode                         : Lossy
Stream size                              : 607 MiB (11%)
Title                                    : AVO (Korolev)
Language                                 : Russian
Default                                  : No
Forced                                   : No
Audio #4
ID                                       : 5
Format                                   : AC-3
Format/Info                              : Audio Coding 3
Mode extension                           : CM (complete main)
Codec ID                                 : A_AC3
Duration                                 : 3h 9mn
Bit rate mode                            : Constant
Bit rate                                 : 448 Kbps
Channel(s)                               : 6 channels
Channel positions                        : Front: L C R, Side: L R, LFE
Sampling rate                            : 48.0 KHz
Bit depth                                : 16 bits
Compression mode                         : Lossy
Stream size                              : 607 MiB (11%)
Title                                    : Original
Language                                 : English
Default                                  : No
Forced                                   : No
Text #1
ID                                       : 6
Format                                   : UTF-8
Codec ID                                 : S_TEXT/UTF8
Codec ID/Info                            : UTF-8 Plain Text
Language                                 : Russian
Default                                  : No
Forced                                   : No
Text #2
ID                                       : 7
Format                                   : UTF-8
Codec ID                                 : S_TEXT/UTF8
Codec ID/Info                            : UTF-8 Plain Text
Language                                 : English
Default                                  : No
Forced                                   : No
Menu
00:00:00.000                             : en:Crossroads
00:04:30.479                             : en:Crusaders
00:07:23.276                             : en:Without an Heir
00:09:22.353                             : en:Sin
00:11:37.572                             : en:Old Memories
00:14:37.835                             : en:The Baron's Son
00:18:15.136                             : en:In Hell
00:20:38.070                             : en:To Erase My Sins
00:22:03.280                             : en:The Guard of the Hawk
00:24:18.540                             : en:Whoever Dies Here Today
00:30:44.509                             : en:The Path to Heaven
00:32:36.621                             : en:A Better World
00:34:52.507                             : en:Remember That Name
00:36:34.150                             : en:The Knight's Oath
00:39:15.520                             : en:Perilous Journey
00:41:58.349                             : en:The Saracen's Challenge
00:45:55.044                             : en:Jerusalem
00:49:07.236                             : en:The New Baron
00:51:36.885                             : en:Sibylla
00:54:18.130                             : en:The Marshall of Jerusalem
00:56:36.310                             : en:His Father's Son
00:58:36.054                             : en:At the King's Table
01:01:15.547                             : en:The Leper King
01:05:47.318                             : en:Ibelin
01:10:11.582                             : en:Guests of the House
01:16:09.940                             : en:There Is Only Light
01:18:43.177                             : en:God Wills It
01:20:08.887                             : en:Tokens
01:21:28.801                             : en:Blasphemy
01:24:34.361                             : en:Defenders of Kerak
01:29:34.202                             : en:The Friendly Enemy
01:30:48.610                             : en:Jerusalem Has Come
01:34:07.267                             : en:The Kiss of Peace
01:37:13.244                             : en:I Quake for Islam
01:39:36.929                             : en:Power
01:42:48.704                             : en:An Understanding
01:45:14.308                             : en:Conscience or Nothing
01:50:21.698                             : en:The Final Dream
01:54:51.802                             : en:Long Live the King
01:56:28.356                             : en:The Reckoning
01:58:05.787                             : en:A Mother's Pain
02:02:01.272                             : en:Templars' Attack
02:04:07.148                             : en:Queen of Jerusalem
02:04:57.156                             : en:Beloved Sister
02:07:43.030                             : en:He Is Waiting
02:11:44.313                             : en:The Road to Hattin
02:13:25.915                             : en:A King's Example
02:16:15.834                             : en:Four Days
02:18:08.655                             : en:To Defend Jerusalem
02:21:55.757                             : en:Rise a Knight
02:24:17.190                             : en:Siege
02:28:54.134                             : en:Retaliation
02:34:58.080                             : en:The Third Day
02:37:20.848                             : en:God Will Understand
02:39:19.008                             : en:The Door Into Jerusalem
02:41:27.678                             : en:Final Stand
02:45:06.814                             : en:Nothing and Everything
02:50:52.576                             : en:The Perfect Knight
02:53:08.253                             : en:Leaving Jerusalem
02:56:02.552                             : en:A Queen Never Walks
02:57:19.504                             : en:I Am the Blacksmith
03:00:35.533                             : en:Epilogue/End Titles

[Цитировать]



Показать сообщения:    

Текущее время: 07-Дек 13:39

Часовой пояс: UTC + 3


Вы не можете начинать темы
Вы не можете отвечать на сообщения
Вы не можете редактировать свои сообщения
Вы не можете удалять свои сообщения
Вы не можете голосовать в опросах
Вы не можете прикреплять файлы к сообщениям
Вы не можете скачивать файлы

!ВНИМАНИЕ!
Сайт не предоставляет электронные версии произведений, а занимается лишь коллекционированием и каталогизацией ссылок, присылаемых и публикуемых на форуме нашими читателями. Если вы являетесь правообладателем какого-либо представленного материала и не желаете, чтобы ссылка на него находилась в нашем каталоге, свяжитесь с нами, и мы незамедлительно удалим ее. Файлы для обмена на трекере предоставлены пользователями сайта, и администрация не несет ответственности за их содержание. Просьба не заливать файлы, защищенные авторскими правами, а также файлы нелегального содержания!