[ Сегодня идет свободное скачивание без начисления Download ]


Статистика раздачи
Скачал: [ 2 ]
 
   
 
Top  
 
 
Племянницы госпожи полковницы / Die Nichten der Frau Oberst (1980) BDRip 720p Информация о фильме
Название: Племянницы госпожи полковницы
Оригинальное название: Die Nichten der Frau Oberst
Год выпуска: 1980
Жанр: Эротика, комедия
Режиссер: Эрвин С. Дитрих
В ролях: Карин Гамбье, Брижит Лаэ, Паскаль Виталь, Надин Паскаль, Френс Джордан, Уилл Стоир, Майк Монтана, Кэтрин Грайнер, Ханс-Рэйди Ислер, Эрик Фальк, Сэр Джон
О фильме: Мадам Оберст имеет двух молоденьких племянниц, кои открыты в собственной сексуальности. Она пытается подыскать им молодых людей, и в результате все трое оказываются в самых необычных и весьма экстравагантных ситуациях…

Страна: Швейцария
Студия: Elite Film, Roldvale
Продолжительность: 01:32:01
Перевод: Авторский одноголосый (Антон Алексеев)
Файл
Кодек: MPEG-4 AVC
Качество: BDRip (720p)
Видео: 5290 Кбит/с, 1280x680
Звук: Русский (AC3, 2 ch, 192 Кбит/с), немецкий (DTS, 6 ch, 1509 Кбит/с)
Внимание фильм содержит сцены эротического характера +18

Скриншоты


Инфо-файл

Общее
Уникальный идентификатор : 235534284567511227727316235095667671239 (0xB13240CEF3C11206BB6D5C6EDAA480C7)
Полное имя : Die Nichten der Frau Oberst. 1980. BDRip (720p) - ylnian.mkv
Формат : Matroska
Версия формата : Version 4 / Version 2
Размер файла : 4,50 Гбайт
Продолжительность : 1 ч. 32 м.
Общий поток : 6993 Кбит/сек
Название фильма : Die Nichten der Frau Oberst. 1980. BDRip (720p) - ylnian
Дата кодирования : UTC 2014-09-16 14:26:04
Программа кодирования : mkvmerge v7.1.0 ('Good Love') 64bit built on Jul 27 2014 13:06:55
Библиотека кодирования : libebml v1.3.0 + libmatroska v1.4.1
DURATION : 01:32:01.875000000
NUMBER_OF_FRAMES : 132525
NUMBER_OF_BYTES : 3651134473
_STATISTICS_WRITING_APP : mkvmerge v7.1.0 ('Good Love') 64bit built on Jul 27 2014 13:06:55
_STATISTICS_WRITING_DATE_UTC : 2014-09-16 14:26:04
_STATISTICS_TAGS : BPS DURATION NUMBER_OF_FRAMES NUMBER_OF_BYTES
Видео
Идентификатор : 1
Формат : AVC
Формат/Информация : Advanced Video Codec
Профиль формата : [email protected]
Параметр CABAC формата : Да
Параметр ReFrames формата : 5 кадров
Идентификатор кодека : V_MPEG4/ISO/AVC
Продолжительность : 1 ч. 32 м.
Битрейт : 5290 Кбит/сек
Ширина : 1280 пикселей
Высота : 680 пикселей
Соотношение сторон : 1,882
Режим частоты кадров : Постоянный
Частота кадров : 24,000 кадра/сек
Цветовое пространство : YUV
Субдискретизация насыщенности : 4:2:0
Битовая глубина : 8 бит
Тип развёртки : Прогрессивная
Бит/(Пиксели*Кадры) : 0.253
Размер потока : 3,31 Гбайт (74%)
Заголовок : Die.Nichten.der.Frau.Oberst.1980.German.720p.BluRay.x264-iFPD
Библиотека кодирования : x264 core 142 r2453 ea0ca51
Настройки программы : cabac=1 / ref=5 / deblock=1:-1:-1 / analyse=0x3:0x113 / me=umh / subme=7 / psy=1 / psy_rd=1.00:0.15 / mixed_ref=1 / me_range=16 / chroma_me=1 / trellis=1 / 8x8dct=1 / cqm=0 / deadzone=21,11 / fast_pskip=0 / chroma_qp_offset=-3 / threads=12 / lookahead_threads=2 / sliced_threads=0 / nr=0 / decimate=1 / interlaced=0 / bluray_compat=0 / constrained_intra=0 / bframes=3 / b_pyramid=2 / b_adapt=1 / b_bias=0 / direct=3 / weightb=1 / open_gop=0 / weightp=2 / keyint=250 / keyint_min=24 / scenecut=40 / intra_refresh=0 / rc_lookahead=40 / rc=2pass / mbtree=1 / bitrate=5290 / ratetol=1.0 / qcomp=0.60 / qpmin=0 / qpmax=69 / qpstep=4 / cplxblur=20.0 / qblur=0.5 / ip_ratio=1.40 / aq=1:1.00
Язык : German
Default : Да
Forced : Да
Аудио #1
Идентификатор : 2
Формат : AC-3
Формат/Информация : Audio Coding 3
Расширение режима : CM (complete main)
Параметр Endianness формата : Big
Идентификатор кодека : A_AC3
Продолжительность : 1 ч. 32 м.
Вид битрейта : Постоянный
Битрейт : 192 Кбит/сек
Каналы : 2 канала
Расположение каналов : Front: L R
Частота : 48,0 КГц
Битовая глубина : 16 бит
Метод сжатия : С потерями
Размер потока : 126 Мбайт (3%)
Заголовок : AVO (Alekseev) (AC3 2.0 192 kbps)
Язык : Russian
Default : Да
Forced : Да
Аудио #2
Идентификатор : 3
Формат : DTS
Формат/Информация : Digital Theater Systems
Режим : 16
Параметр Endianness формата : Big
Идентификатор кодека : A_DTS
Продолжительность : 1 ч. 32 м.
Вид битрейта : Постоянный
Битрейт : 1509 Кбит/сек
Каналы : 6 каналов
Расположение каналов : Front: L C R, Side: L R, LFE
Частота : 48,0 КГц
Битовая глубина : 24 бит
Метод сжатия : С потерями
Размер потока : 993 Мбайт (22%)
Заголовок : DTS 5.1 1509 kbps
Язык : German
Default : Нет
Forced : Нет
Меню
00:00:00.000 : en:00:00:00.000
00:09:36.792 : en:00:09:36.792
00:23:30.042 : en:00:23:30.042
00:38:17.208 : en:00:38:17.208
00:54:17.458 : en:00:54:17.458
00:59:30.667 : en:00:59:30.667
01:09:06.083 : en:01:09:06.083
01:18:55.875 : en:01:18:55.875

[Цитировать]



Показать сообщения:    

Текущее время: 04-Дек 11:18

Часовой пояс: UTC + 3


Вы не можете начинать темы
Вы не можете отвечать на сообщения
Вы не можете редактировать свои сообщения
Вы не можете удалять свои сообщения
Вы не можете голосовать в опросах
Вы не можете прикреплять файлы к сообщениям
Вы не можете скачивать файлы

!ВНИМАНИЕ!
Сайт не предоставляет электронные версии произведений, а занимается лишь коллекционированием и каталогизацией ссылок, присылаемых и публикуемых на форуме нашими читателями. Если вы являетесь правообладателем какого-либо представленного материала и не желаете, чтобы ссылка на него находилась в нашем каталоге, свяжитесь с нами, и мы незамедлительно удалим ее. Файлы для обмена на трекере предоставлены пользователями сайта, и администрация не несет ответственности за их содержание. Просьба не заливать файлы, защищенные авторскими правами, а также файлы нелегального содержания!