[ Сегодня идет свободное скачивание без начисления Download ]


Статистика раздачи
Нет
 
   
 
Top  
 
 
Полицейский-самурай 2: Смертельная месть / Samurai Cop 2: Deadly Vengeance Информация о фильме
Название: Полицейский-самурай 2: Смертельная месть
Оригинальное название: Samurai Cop 2: Deadly Vengeance
Год выхода: 2015
Жанр: боевик, триллер, криминал
Режиссер: Грегори Хатанака
В ролях: Мэтью Каредас, Марк Фрейзер, Бай Лин, Кэйден Кросс, Томми Вайсо, Крэнстон Комуро, Лаурен Лэндон, Мелисса Мур, Мел Новак, Лекси Белль
О фильме: Ровно 25 лет в городе произошла череда странных и загадочных убийств, расследовать которые так и не удалось. Но теперь, спустя столько лет, полицейский Фрэнк Вашингтон решает возобновить те самые расследования, использовать имеющиеся данные и попробовать все-таки раскрыть загадочные дела. Помогать в расследовании Фрэнку будет его старый напарник Джо Маршал. Друзья уверенны, что к делу каким-то образом причастны местные власти, полицейские и воры, вышедшие накануне на свободу.

Выпущено: США / CineRidge Entertainment, Epoch Entertainment
Продолжительность: 01:33:43
Озвучивание: Любительское (одноголосое) [Хихикающий доктор]
Файл
Формат: MKV
Качество: BDRip 720p
Видео: MPEG-4 AVC, 4802 kb/s, 1280x544
Аудио: Russian / English: AC3, 192 kb/s (2 ch)

MI

Format : Matroska
Format version : Version 2
File size : 3.40 GiB
Duration : 1h 33mn
Overall bit rate : 5 187 Kbps
Encoded date : UTC 2016-04-21 12:53:02
Writing application : mkvmerge v7.8.0 ('River Man') 32bit built on Apr 3 2015 12:11:22
Writing library : libebml v1.3.1 + libmatroska v1.4.2
Video
ID : 1
Format : AVC
Format/Info : Advanced Video Codec
Format profile : High@L4.1
Format settings, CABAC : Yes
Format settings, ReFrames : 5 frames
Codec ID : V_MPEG4/ISO/AVC
Duration : 1h 33mn
Bit rate : 4 802 Kbps
Width : 1 280 pixels
Height : 544 pixels
Display aspect ratio : 2.35:1
Frame rate mode : Constant
Frame rate : 23.976 fps
Color space : YUV
Chroma subsampling : 4:2:0
Bit depth : 8 bits
Scan type : Progressive
Bits/(Pixel*Frame) : 0.288
Stream size : 3.08 GiB (91%)
Writing library : x264 core 148 r2638 7599210
Encoding settings : cabac=1 / ref=5 / deblock=1:-3:-3 / analyse=0x3:0x113 / me=umh / subme=8 / psy=1 / psy_rd=1.00:0.25 / mixed_ref=1 / me_range=24 / chroma_me=1 / trellis=1 / 8x8dct=1 / cqm=0 / deadzone=21,11 / fast_pskip=1 / chroma_qp_offset=-4 / threads=12 / lookahead_threads=2 / sliced_threads=0 / nr=0 / decimate=1 / interlaced=0 / bluray_compat=0 / constrained_intra=0 / bframes=3 / b_pyramid=2 / b_adapt=2 / b_bias=0 / direct=3 / weightb=1 / open_gop=0 / weightp=2 / keyint=240 / keyint_min=24 / scenecut=40 / intra_refresh=0 / rc_lookahead=50 / rc=2pass / mbtree=1 / bitrate=4802 / ratetol=1.0 / qcomp=0.60 / qpmin=0 / qpmax=69 / qpstep=4 / cplxblur=20.0 / qblur=0.5 / vbv_maxrate=62500 / vbv_bufsize=78125 / nal_hrd=none / filler=0 / ip_ratio=1.40 / aq=1:0.50
Language : English
Default : Yes
Forced : No
Audio #1
ID : 2
Format : AC-3
Format/Info : Audio Coding 3
Mode extension : CM (complete main)
Format settings, Endianness : Big
Codec ID : A_AC3
Duration : 1h 33mn
Bit rate mode : Constant
Bit rate : 192 Kbps
Channel(s) : 2 channels
Channel positions : Front: L R
Sampling rate : 48.0 KHz
Bit depth : 16 bits
Compression mode : Lossy
Stream size : 129 MiB (4%)
Language : Russian
Default : Yes
Forced : No
Audio #2
ID : 3
Format : AC-3
Format/Info : Audio Coding 3
Mode extension : CM (complete main)
Format settings, Endianness : Big
Codec ID : A_AC3
Duration : 1h 33mn
Bit rate mode : Constant
Bit rate : 192 Kbps
Channel(s) : 2 channels
Channel positions : Front: L R
Sampling rate : 48.0 KHz
Bit depth : 16 bits
Compression mode : Lossy
Stream size : 129 MiB (4%)
Language : English
Default : No
Forced : No
Menu
00:00:00.000 : en:00:00:00.000
00:00:00.375 : en:00:00:00.375
00:02:54.257 : en:00:02:54.257
00:06:58.126 : en:00:06:58.126
00:10:08.691 : en:00:10:08.691
00:14:54.977 : en:00:14:54.977
00:18:43.539 : en:00:18:43.539
00:24:30.052 : en:00:24:30.052
00:28:48.602 : en:00:28:48.602
00:32:33.493 : en:00:32:33.493
00:37:30.415 : en:00:37:30.415
00:41:27.026 : en:00:41:27.026
00:45:18.466 : en:00:45:18.466
00:50:50.589 : en:00:50:50.589
00:55:20.901 : en:00:55:20.901
01:00:52.232 : en:01:00:52.232
01:05:08.071 : en:01:05:08.071
01:08:58.134 : en:01:08:58.134
01:18:00.593 : en:01:18:00.593
01:28:38.814 : en:01:28:38.814

Скриншоты

[Цитировать]



Показать сообщения:    

Текущее время: 10-Дек 17:44

Часовой пояс: UTC + 3


Вы не можете начинать темы
Вы не можете отвечать на сообщения
Вы не можете редактировать свои сообщения
Вы не можете удалять свои сообщения
Вы не можете голосовать в опросах
Вы не можете прикреплять файлы к сообщениям
Вы не можете скачивать файлы

!ВНИМАНИЕ!
Сайт не предоставляет электронные версии произведений, а занимается лишь коллекционированием и каталогизацией ссылок, присылаемых и публикуемых на форуме нашими читателями. Если вы являетесь правообладателем какого-либо представленного материала и не желаете, чтобы ссылка на него находилась в нашем каталоге, свяжитесь с нами, и мы незамедлительно удалим ее. Файлы для обмена на трекере предоставлены пользователями сайта, и администрация не несет ответственности за их содержание. Просьба не заливать файлы, защищенные авторскими правами, а также файлы нелегального содержания!