[ Сегодня идет свободное скачивание без начисления Download ]


Статистика раздачи
Скачал: [ 5 ]
 
   
 
Top  
 
 
- Специалист | Атака и защита веб-сайтов по OWASP Top 10 (2015) PCRec - Автор (режиссер): Специалист
Жанр: SQL, Apache
Описание:
В курсе представлены подробные материалы по работе веб-серверов и веб-приложений. Детально описаны уязвимости в соответствии с классификацией OWASP Top 10 и техники применения эксплойтов для многочисленных тестов на проникновение. А также предложены рекомендации по укреплению защищенности веб-приложений для каждого вида уязвимости.
Продолжительность: 14:20:50
Качество видео: PCRec
Видео: VC-1, 960x720, ~70kbps
Аудио: AAC, 2 ch, 56kbps

По окончании курса Вы будете уметь:

проводить анализ и выполнять последовательное тестирование всех способов атаки на веб-приложения по классификации OWASP Top 10.

Преподаватель

Клевогин Сергей Павлович

Mediainfo:

Полное имя                               : D:\видеоуроки\[Специалист] Атака и защита веб-сайтов по OWASP Top 10\1.mp4
Формат                                   : MPEG-4
Профиль формата                          : Base Media
Идентификатор кодека                     : isom (isom/avc1)
Размер файла                             : 36,8 Мбайт
Продолжительность                        : 40 м.
Режим общего битрейта                    : Переменный
Общий поток                              : 129 Кбит/сек
Дата кодирования                         : UTC 2015-12-05 01:50:54
Дата пометки                             : UTC 2015-12-05 01:50:54
Видео
Идентификатор                            : 1
Формат                                   : AVC
Формат/Информация                        : Advanced Video Codec
Профиль формата                          : [url=mailto:High@L3.1]High@L3.1[/url]
Параметр CABAC формата                   : Да
Параметр ReFrames формата                : 8 кадров
Идентификатор кодека                     : avc1
Идентификатор кодека/Информация          : Advanced Video Coding
Продолжительность                        : 40 м.
Битрейт                                  : 70,0 Кбит/сек
Максимальный битрейт                     : 1519 Кбит/сек
Ширина                                   : 960 пикселей
Высота                                   : 720 пикселей
Соотношение сторон                       : 4:3
Режим частоты кадров                     : Постоянный
Частота кадров                           : 10,000 кадров/сек
Цветовое пространство                    : YUV
Субдискретизация насыщенности            : 4:2:0
Битовая глубина                          : 8 бит
Тип развёртки                            : Прогрессивная
Бит/(Пиксели*Кадры)                      : 0.010
Размер потока                            : 20,1 Мбайт (54%)
Заголовок                                : [url=mailto:264@GPAC0.5.2]264@GPAC0.5.2[/url]-DEV-rev248-g39d5978-master
Библиотека кодирования                   : x264 core 146 r2538 121396c
Настройки программы                      : cabac=1 / ref=8 / deblock=1:-1:-1 / analyse=0x3:0x113 / me=umh / subme=7 / psy=1 / psy_rd=1.00:0.20 / mixed_ref=1 / me_range=16 / chroma_me=1 / trellis=2 / 8x8dct=1 / cqm=0 / deadzone=21,11 / fast_pskip=0 / chroma_qp_offset=-3 / threads=6 / lookahead_threads=1 / sliced_threads=0 / nr=0 / decimate=0 / interlaced=0 / bluray_compat=0 / constrained_intra=0 / bframes=3 / b_pyramid=2 / b_adapt=2 / b_bias=0 / direct=3 / weightb=1 / open_gop=0 / weightp=2 / keyint=250 / keyint_min=10 / scenecut=40 / intra_refresh=0 / rc_lookahead=50 / rc=2pass / mbtree=1 / bitrate=70 / ratetol=1.0 / qcomp=0.60 / qpmin=0 / qpmax=69 / qpstep=4 / cplxblur=20.0 / qblur=0.5 / vbv_maxrate=14000 / vbv_bufsize=14000 / nal_hrd=none / filler=0 / ip_ratio=1.40 / aq=1:1.00
Дата кодирования                         : UTC 2015-12-05 01:50:54
Дата пометки                             : UTC 2015-12-05 01:50:55
Аудио
Идентификатор                            : 2
Формат                                   : AAC
Формат/Информация                        : Advanced Audio Codec
Профиль формата                          : LC
Идентификатор кодека                     : 40
Продолжительность                        : 40 м.
Вид битрейта                             : Переменный
Битрейт                                  : 56,0 Кбит/сек
Максимальный битрейт                     : 60,2 Кбит/сек
Каналы                                   : 2 канала
Расположение каналов                     : Front: L R
Частота                                  : 48,0 КГц
Частота кадров                           : 46,875 кадров/сек (1024 spf)
Метод сжатия                             : С потерями
Размер потока                            : 16,0 Мбайт (44%)
Дата кодирования                         : UTC 2015-12-05 01:42:10
Дата пометки                             : UTC 2015-12-05 01:50:55
Скриншоты:

[Цитировать]

Super. Bolshoe spasibo avtoru i @sibiryak

[Цитировать]



Показать сообщения:    

Текущее время: 08-Дек 21:11

Часовой пояс: UTC + 3


Вы не можете начинать темы
Вы не можете отвечать на сообщения
Вы не можете редактировать свои сообщения
Вы не можете удалять свои сообщения
Вы не можете голосовать в опросах
Вы не можете прикреплять файлы к сообщениям
Вы не можете скачивать файлы

!ВНИМАНИЕ!
Сайт не предоставляет электронные версии произведений, а занимается лишь коллекционированием и каталогизацией ссылок, присылаемых и публикуемых на форуме нашими читателями. Если вы являетесь правообладателем какого-либо представленного материала и не желаете, чтобы ссылка на него находилась в нашем каталоге, свяжитесь с нами, и мы незамедлительно удалим ее. Файлы для обмена на трекере предоставлены пользователями сайта, и администрация не несет ответственности за их содержание. Просьба не заливать файлы, защищенные авторскими правами, а также файлы нелегального содержания!