[ Сегодня идет свободное скачивание без начисления Download ]


Статистика раздачи
Нет
 
   
 
Top  
 
 
Белки в деле / Get Squirrely«За желуди ответишь!» Год выпуска: 2015
Страна: США
Производство: Awesometown Entertainment, Vanguard Films
Жанр: Мультфильм, комедия, семейный
Режиссёр: Росс Венокур
В ролях: Джейсон Джонс, Уилл Форте, Джон Легуизамо, Саманта Би, Виктория Джастис, Джон Клиз, Дэвид Берни, Джон Клилэнд, Джим Каммингс, Джереми Харрис
Перевод: Профессиональный (многоголосый, закадровый)[Чистый звук]
Субтитры: Отсутствуют
Доролнительно: ВНИМАНИЕ!!! Присутствует реклама от спонсора показа
Описание: В лесу случилась беда! Пронырливые дельцы из города решили, что желуди послужат отличной основой для нового Чудо-крема. Они приехали в лес на железных машинах, собрали все желуди и оставили всех лесных жителей на зиму без еды!
Но отважная белка Фрэнки, знает, что нужно делать! Он собирает суперкоманду своих друзей — дикобраза Коди, летучую мышь Лиама, Змею Рэйтч, Ящерицу Эдси и Белку-летягу Лолу, вместе с ними он должен пробраться на фабрику где хранятся желуди и вернуть их! Дата премьеры (мир): 6 ноября 2015
Дата премьеры (РФ): 24 марта 2016, «Наше Кино»
Качество: HDRip
Продолжительность: 01:26:36
Формат: AVI
Видео кодек: XviD
Аудио кодек: AC3
Видео: 720x384 (1,85:1), 23,976 fps, XviD ~1866 kbps avg, 0.281 bit/pixel
Аудио: 48 kHz, AC3, 2 ch, ~384.00 kbps avg | русский | Профессиональный (многоголосый, закадровый)[Чистый звук]

MediaInfo

Общее
Полное имя : D:TorrentsЗавершенныеGet.Squirrely.2O15.P.HDRip.14OOMB_KOSHERA.avi
Формат : AVI
Формат/Информация : Audio Video Interleave
Размер файла : 1,37 Гбайт
Продолжительность : 1 ч. 26 м.
Общий поток : 2259 Кбит/сек
Программа кодирования : VirtualDubMod 1.5.10.2 (build 2540/release)
Библиотека кодирования : VirtualDubMod build 2540/release
Видео
Идентификатор : 0
Формат : MPEG-4 Visual
Профиль формата : Advanced Simple@L5
Параметр BVOP формата : 2
Параметр QPel формата : Нет
Параметр GMC формата : Без точки перехода
Параметр матрицы формата : Выборочная
Идентификатор кодека : XVID
Идентификатор кодека/Подсказка : XviD
Продолжительность : 1 ч. 26 м.
Битрейт : 1866 Кбит/сек
Ширина : 720 пикселей
Высота : 384 пикселя
Соотношение сторон : 1,85:1
Частота кадров : 23,976 (24000/1001) кадра/сек
Цветовое пространство : YUV
Субдискретизация насыщенности : 4:2:0
Битовая глубина : 8 бит
Тип развёртки : Прогрессивная
Метод сжатия : С потерями
Бит/(Пиксели*Кадры) : 0.281
Размер потока : 1,13 Гбайт (83%)
Библиотека кодирования : XviD 1.2.1 (UTC 2008-12-04)
Аудио
Идентификатор : 1
Формат : AC-3
Формат/Информация : Audio Coding 3
Расширение режима : CM (complete main)
Параметр Endianness формата : Big
Идентификатор кодека : 2000
Продолжительность : 1 ч. 26 м.
Вид битрейта : Постоянный
Битрейт : 384 Кбит/сек
Каналы : 2 канала
Расположение каналов : Front: L R
Частота : 48,0 КГц
Частота кадров : 31,250 кадров/сек (1536 spf)
Метод сжатия : С потерями
Размер потока : 238 Мбайт (17%)
Выравнивание : Разделение по промежуткам
Продолжительность промежутка : 42 мс. (1,00 видеокадр)
Время предзагрузки промежутка : 500 мс.

Скриншоты

[Цитировать]



Показать сообщения:    

Текущее время: 07-Дек 15:34

Часовой пояс: UTC + 3


Вы не можете начинать темы
Вы не можете отвечать на сообщения
Вы не можете редактировать свои сообщения
Вы не можете удалять свои сообщения
Вы не можете голосовать в опросах
Вы не можете прикреплять файлы к сообщениям
Вы не можете скачивать файлы

!ВНИМАНИЕ!
Сайт не предоставляет электронные версии произведений, а занимается лишь коллекционированием и каталогизацией ссылок, присылаемых и публикуемых на форуме нашими читателями. Если вы являетесь правообладателем какого-либо представленного материала и не желаете, чтобы ссылка на него находилась в нашем каталоге, свяжитесь с нами, и мы незамедлительно удалим ее. Файлы для обмена на трекере предоставлены пользователями сайта, и администрация не несет ответственности за их содержание. Просьба не заливать файлы, защищенные авторскими правами, а также файлы нелегального содержания!