[ Сегодня идет свободное скачивание без начисления Download ]


Статистика раздачи
Нет
 
   
 
Top  
 
 
Белки в деле / Get Squirrely«За желуди ответишь!» Год выпуска: 2015
Страна: США
Производство: Awesometown Entertainment, Vanguard Films
Жанр: Мультфильм, комедия, семейный
Режиссёр: Росс Венокур
В ролях: Джейсон Джонс, Уилл Форте, Джон Легуизамо, Саманта Би, Виктория Джастис, Джон Клиз, Дэвид Берни, Джон Клилэнд, Джим Каммингс, Джереми Харрис
Перевод: Профессиональный (многоголосый, закадровый)[Чистый звук]
Субтитры: Отсутствуют
Доролнительно: Присутствуют аудио и видео вставки рекламы!
Описание: В лесу случилась беда! Пронырливые дельцы из города решили, что желуди послужат отличной основой для нового Чудо-крема. Они приехали в лес на железных машинах, собрали все желуди и оставили всех лесных жителей на зиму без еды!
Но отважная белка Фрэнки, знает, что нужно делать! Он собирает суперкоманду своих друзей — дикобраза Коди, летучую мышь Лиама, Змею Рэйтч, Ящерицу Эдси и Белку-летягу Лолу, вместе с ними он должен пробраться на фабрику где хранятся желуди и вернуть их! Дата премьеры (мир): 6 ноября 2015
Дата премьеры (РФ): 24 марта 2016, «Наше Кино»
Качество: HDRip
Продолжительность: 01:26:36
Формат: AVI
Видео кодек: XviD
Аудио кодек: AC3
Видео: 720x384 (1.85:1), 23.976 fps, XviD build 50 ~991 kbps avg, 0.150 bit/pixel
Аудио: 48 kHz, AC3 Dolby Digital, 2/0 (L,R) ch, ~128.00 kbps avg | русский | Профессиональный (многоголосый, закадровый) [Чистый звук]

MediaInfo

Get.Squirrely.2O15.P.HDRip.7OOMB_KOSHERA.avi
Format : AVI
Format/Info : Audio Video Interleave
File size : 699 MiB
Duration : 1h 26mn
Overall bit rate : 1 129 Kbps
Writing application : VirtualDubMod 1.5.10.2 (build 2540/release)
Writing library : VirtualDubMod build 2540/release
Video
ID : 0
Format : MPEG-4 Visual
Format profile : Advanced Simple@L5
Format settings, BVOP : 2
Format settings, QPel : No
Format settings, GMC : No warppoints
Format settings, Matrix : Custom
Codec ID : XVID
Codec ID/Hint : XviD
Duration : 1h 26mn
Bit rate : 991 Kbps
Width : 720 pixels
Height : 384 pixels
Display aspect ratio : 1.85:1
Frame rate : 23.976 fps
Color space : YUV
Chroma subsampling : 4:2:0
Bit depth : 8 bits
Scan type : Progressive
Compression mode : Lossy
Bits/(Pixel*Frame) : 0.150
Stream size : 614 MiB (88%)
Writing library : XviD 1.2.1 (UTC 2008-12-04)
Audio
ID : 1
Format : AC-3
Format/Info : Audio Coding 3
Mode extension : CM (complete main)
Format settings, Endianness : Big
Codec ID : 2000
Duration : 1h 26mn
Bit rate mode : Constant
Bit rate : 128 Kbps
Channel(s) : 2 channels
Channel positions : Front: L R
Sampling rate : 48.0 KHz
Bit depth : 16 bits
Compression mode : Lossy
Stream size : 79.3 MiB (11%)
Alignment : Split accross interleaves
Interleave, duration : 42 ms (1.00 video frame)
Interleave, preload duration : 500 ms

Скриншоты

[Цитировать]



Показать сообщения:    

Текущее время: 08-Дек 12:45

Часовой пояс: UTC + 3


Вы не можете начинать темы
Вы не можете отвечать на сообщения
Вы не можете редактировать свои сообщения
Вы не можете удалять свои сообщения
Вы не можете голосовать в опросах
Вы не можете прикреплять файлы к сообщениям
Вы не можете скачивать файлы

!ВНИМАНИЕ!
Сайт не предоставляет электронные версии произведений, а занимается лишь коллекционированием и каталогизацией ссылок, присылаемых и публикуемых на форуме нашими читателями. Если вы являетесь правообладателем какого-либо представленного материала и не желаете, чтобы ссылка на него находилась в нашем каталоге, свяжитесь с нами, и мы незамедлительно удалим ее. Файлы для обмена на трекере предоставлены пользователями сайта, и администрация не несет ответственности за их содержание. Просьба не заливать файлы, защищенные авторскими правами, а также файлы нелегального содержания!