[ Сегодня идет свободное скачивание без начисления Download ]


Статистика раздачи
Нет
 
   
 
Top  
 
 
Королева проклятых / Queen of the Damned Год выпуска: 2002
Страна: США, Австралия
Производство: Warner Bros.
Жанр: ужасы, фэнтези, музыка,хоррор, триллер
Режиссер: Майкл Раймер / Michael Rymer
В ролях: Стюарт Таунсенд /Stuart Townsend/, Элайя /Aaliyah/, Маргерит Моро /Marguerite Moreau/, Пол МакГэнн /Paul McGann/, Венсен Перес /Vincent Perez/, Лина Улин /Lena Olin.
Перевод: Профессиональный (полное дублирование)
Субтитры: Отсутствуют
Описание: Вампир Лестат пробуждается от своего полувекового сна от звуков рок-музыки, исходящих из дома на соседней улице (по совпадению, дом ранее принадлежал ему). Он узнаёт, что там играет любительская рок-группа и становится её солистом. Став более популярным, чем Элвис Пресли в своё время, Лестат объявляет о единственном концерте в Долине Смерти в Калифорнии. К Лестату приходит его создатель - Мариус (Винсент Перез), вампир, рождённый за 400 лет до н. э., и предупреждает, что другие вампиры не станут терпеть его публичную жизнь, ведь он нарушает один из главнейших запретов - смертные никогда не должны знать о существовании вампиров. Лестат отмахивается от советов Мариуса, вынуждая вампиров напасть на него во время концерта...
[kp]22412[/kp] [imdb]tt0238546[/imdb]
Доп. информация: Королева проклятых (англ. Queen of the Damned) — фильм 2002-го года, который является экранизацией третьего романа из цикла «Хроники вампиров» (англ. The Vampire Chronicles), написанного Энн Райс, хотя фильм также сочетает в себе некоторые сюжетные элементы из предыдущего романа «Вампир Лестат» (англ. The Vampire Lestat). В фильме снялись певица Aaliyah (Алия) в главной роли и Стюарт Таунсенд в роли Лестата де Лионкура. Фильм был выпущен через шесть месяцев после гибели Алии в авиакатастрофе.
Качество: DVDRip
Продолжительность: 01:39:27
Формат: AVI
Видео кодек: XviD
Аудио кодек: AC3
Видео: 720x304 (2.37:1) 25 fps XviD build 50~1866 kbps avg,0.34 bit/pixel
Аудио: 48 kHz, AC3 Dolby Digital, 2 ch, ~224.00 kbps avg
Премьера (мир): 10 января 2002
Премьера (РФ): 17 октября 2002

Media Info

Общее
Полное имя                               : E:\Для накрутки\Koroleva.Proklyatyh.2002_[beetor.org].avi
Формат                                   : AVI
Формат/Информация                        : Audio Video Interleave
Размер файла                             : 1,46 Гбайт
Продолжительность                        : 1 ч. 39 м.
Общий поток                              : 2098 Кбит/сек
Режиссёр                                 : zim2001
Программа кодирования                    : VirtualDubMod 1.5.10.2 (build 2540/release)
Видео
Идентификатор                            : 0
Формат                                   : MPEG-4 Visual
Профиль формата                          : Advanced [email protected]
Параметр BVOP формата                    : 1
Параметр QPel формата                    : Нет
Параметр GMC формата                     : Без точки перехода
Параметр матрицы формата                 : Выборочная
Идентификатор кодека                     : XVID
Идентификатор кодека/Подсказка           : XviD
Продолжительность                        : 1 ч. 39 м.
Битрейт                                  : 1867 Кбит/сек
Ширина                                   : 720 пикселей
Высота                                   : 304 пикселя
Соотношение сторон                       : 2,35:1
Частота кадров                           : 25,000 кадров/сек
Цветовое пространство                    : YUV
Субдискретизация насыщенности            : 4:2:0
Битовая глубина                          : 8 бит
Тип развёртки                            : Прогрессивная
Метод сжатия                             : С потерями
Бит/(Пиксели*Кадры)                      : 0.341
Размер потока                            : 1,30 Гбайт (89%)
Библиотека кодирования                   : XviD 1.2.1 (UTC 2008-12-04)
Аудио
Идентификатор                            : 1
Формат                                   : AC-3
Формат/Информация                        : Audio Coding 3
Идентификатор кодека                     : 2000
Продолжительность                        : 1 ч. 38 м.
Вид битрейта                             : Постоянный
Битрейт                                  : 224 Кбит/сек
Каналы                                   : 2 канала
Частота                                  : 48,0 КГц
Метод сжатия                             : С потерями
Размер потока                            : 158 Мбайт (11%)
Выравнивание                             : Разделение по промежуткам
Продолжительность промежутка             : 40  мс. (1,01 видеокадр)
Время предзагрузки промежутка            : 500  мс.
[th]http://torrentsclub.org/pictures/7967720eabe92b694f...1b07d5d.png[/th]
[th]http://torrentsclub.org/pictures/fb62a56edffe3ffa22...c7612fd.png[/th]
[th]http://torrentsclub.org/pictures/8374361980cb49128b...66a7e30.png[/th]


Последний раз редактировалось: Taygon (2013-01-05 21:01), всего редактировалось 1 раз

[Цитировать]

Спасибо за обложку!

Комментарий от Arrow


Неза что, рад помоч!

[Цитировать]



Показать сообщения:    

Текущее время: 06-Дек 19:07

Часовой пояс: UTC + 3


Вы не можете начинать темы
Вы не можете отвечать на сообщения
Вы не можете редактировать свои сообщения
Вы не можете удалять свои сообщения
Вы не можете голосовать в опросах
Вы не можете прикреплять файлы к сообщениям
Вы не можете скачивать файлы

!ВНИМАНИЕ!
Сайт не предоставляет электронные версии произведений, а занимается лишь коллекционированием и каталогизацией ссылок, присылаемых и публикуемых на форуме нашими читателями. Если вы являетесь правообладателем какого-либо представленного материала и не желаете, чтобы ссылка на него находилась в нашем каталоге, свяжитесь с нами, и мы незамедлительно удалим ее. Файлы для обмена на трекере предоставлены пользователями сайта, и администрация не несет ответственности за их содержание. Просьба не заливать файлы, защищенные авторскими правами, а также файлы нелегального содержания!