[ Сегодня идет свободное скачивание без начисления Download ]


Статистика раздачи
Нет
 
   
 
Top  
 
 
Девушка из Дании / The Danish Girl«Find the courage to be yourself» Год выпуска: 2015
Страна: Великобритания, США, Бельгия, Дания, Германия
Производство: Artémis Productions, Pretty Pictures, ReVision Pictures, Working Title Films
Жанр: драма, мелодрама, биография
Режиссёр: Том Хупер
В ролях: Эдди Редмэйн, Алисия Викандер, Туссе Сильберг, Адриан Шиллер, Эмбер Хёрд, Эмиральд Феннел, Генри Петтигрю, Клаус Буе, Питер Крэг, Анджела Каррен, Ричард Диксон, Бен Уишоу, Пип Торренс, Пол Бигли, Нэнси Крэйн, Николя Слоун, Соня Каллингфорд, Маттиас Шонартс, Виктория Эмсли, Александр Девриент
Перевод: Профессиональный (полное дублирование)[BD CEE]
Субтитры: Отсутствуют
Описание: Действие происходит в 1920-х годах в Копенгагене. Иллюстратор и художник Герда Вегенер просит своего мужа Эйнара Вегенера попозировать в качестве женской модели. Портреты приобретают популярность и Герда продолжает писать картины со своим мужем в качестве женщины. Эйнару нравится собственная женская внешность и он начинает жить под именем Лили Эльбе. Впоследствии Эльбе становится первым человеком, прошедшим хирургическую коррекцию пола. Дата премьеры (мир): 5 сентября 2015
Дата премьеры (РФ): 28 января 2016, «UPI»
Качество: BDRip
Продолжительность: 01:59:38
Формат: AVI
Видео кодек: XviD
Аудио кодек: AC3
Видео: 704x384 (1,85:1), 23,976 fps, Xvid ~1294 kbps avg, 0.200 bit/pixel
Аудио: 48 kHz, AC3, 6 ch, ~448.00 kbps avg | русский | Профессиональный (полное дублирование)[BD CEE]

MediaInfo

Общее
Полное имя : D:\Torrents\Завершенные\Danish Girl.2015.D.BDRip.avi
Формат : AVI
Формат/Информация : Audio Video Interleave
Размер файла : 1,46 Гбайт
Продолжительность : 1 ч. 59 м.
Общий поток : 1751 Кбит/сек
Программа кодирования : VirtualDubMod 1.5.10.3 (build 2550/release)
Библиотека кодирования : VirtualDubMod build 2550/release
Видео
Идентификатор : 0
Формат : MPEG-4 Visual
Профиль формата : Advanced Simple@L5
Параметр BVOP формата : 2
Параметр QPel формата : Нет
Параметр GMC формата : Без точки перехода
Параметр матрицы формата : Default (MPEG)
Идентификатор кодека : XVID
Идентификатор кодека/Подсказка : XviD
Продолжительность : 1 ч. 59 м.
Битрейт : 1294 Кбит/сек
Ширина : 704 пикселя
Высота : 384 пикселя
Соотношение сторон : 1,85:1
Частота кадров : 23,976 (24000/1001) кадра/сек
Цветовое пространство : YUV
Субдискретизация насыщенности : 4:2:0
Битовая глубина : 8 бит
Тип развёртки : Прогрессивная
Метод сжатия : С потерями
Бит/(Пиксели*Кадры) : 0.200
Размер потока : 1,08 Гбайт (74%)
Библиотека кодирования : XviD 73
Аудио
Идентификатор : 1
Формат : AC-3
Формат/Информация : Audio Coding 3
Расширение режима : CM (complete main)
Параметр Endianness формата : Big
Идентификатор кодека : 2000
Продолжительность : 1 ч. 59 м.
Вид битрейта : Постоянный
Битрейт : 448 Кбит/сек
Каналы : 6 каналов
Расположение каналов : Front: L C R, Side: L R, LFE
Частота : 48,0 КГц
Частота кадров : 31,250 кадров/сек (1536 spf)
Метод сжатия : С потерями
Размер потока : 383 Мбайт (26%)
Выравнивание : Разделение по промежуткам
Продолжительность промежутка : 42 мс. (1,00 видеокадр)
Время предзагрузки промежутка : 500 мс.

Скриншоты

[Цитировать]



Показать сообщения:    

Текущее время: 11-Дек 14:57

Часовой пояс: UTC + 3


Вы не можете начинать темы
Вы не можете отвечать на сообщения
Вы не можете редактировать свои сообщения
Вы не можете удалять свои сообщения
Вы не можете голосовать в опросах
Вы не можете прикреплять файлы к сообщениям
Вы не можете скачивать файлы

!ВНИМАНИЕ!
Сайт не предоставляет электронные версии произведений, а занимается лишь коллекционированием и каталогизацией ссылок, присылаемых и публикуемых на форуме нашими читателями. Если вы являетесь правообладателем какого-либо представленного материала и не желаете, чтобы ссылка на него находилась в нашем каталоге, свяжитесь с нами, и мы незамедлительно удалим ее. Файлы для обмена на трекере предоставлены пользователями сайта, и администрация не несет ответственности за их содержание. Просьба не заливать файлы, защищенные авторскими правами, а также файлы нелегального содержания!