[ Сегодня идет свободное скачивание без начисления Download ]


Статистика раздачи
Нет
 
   
 
Top  
 
 
Преступник / Criminal«The CIA's last hope is in the mind of a criminal»
♦ Год выпуска: 2016
♦ Страна: Великобритания, США
♦ Производство: Millennium Films, BenderSpink, Campbell Grobman Films, Lionsgate
♦ Жанр: Фантастика, боевик, триллер, драма, криминал, детектив
♦ Режиссёр: Ариэль Вромен
♦ В ролях: Кевин Костнер, Гари Олдман, Томми Ли Джонс, Райан Рейнольдс, Элис Ив, Галь Гадот, Хорди Молья, Майкл Питт, Амори Ноласко, Антье Трауэ, Скотт Эдкинс, Наталия Гуслистая, Колин Сэлмон, Роберт Дави, Дэвид Крисанту
♦ Перевод: Профессиональный (полное дублированние)
♦ Субтитры: Нет
♦ Описание: В последней отчаянной попытке остановить катастрофу мирового масштаба генетики осуществляют невероятную операцию по вживлению воспоминаний и умений погибшего оперативника ЦРУ в тело опасного заключенного с надеждой, что тот доведет до конца прерванную миссию агента.
♦ Доп инфо: Релиз без рекламы! ♦ Качество: CAMRip-PROPER
♦ Продолжительность: 01:44:48
♦ Формат: AVI
♦ Видео кодек: XviD
♦ Аудио кодек: AC3
♦ Видео: 720x304 (2.37:1), 59.940 fps, XviD build 73 ~1735 kbps avg, 0.132 bit/pixel
♦ Аудио: 48 kHz, AC3 Dolby Digital, 2 ch, ~192.00 kbps avg
♦ Дата премьеры (мир): 7 апреля 2016
♦ Дата премьеры (РФ): 14 апреля 2016, «MEGOGO Distribution»

MediaInfo:

Общее
Полное имя : E:KaztorkaPrectypnik.2016.CAMRip.Proper.D.Rustorrents.info.avi
Формат : AVI
Формат/Информация : Audio Video Interleave
Размер файла : 1,48 Гбайт
Продолжительность : 1 ч. 44 м.
Общий поток : 2016 Кбит/сек
Название фильма : Prectypnik.2016.CAMRip.Proper.D.Rustorrents.info
Программа кодирования : VirtualDubMod 1.5.10.3 | www.virtualdub-fr.org || (build 2550/release)
Правообладатель : RUSTORRENTS.INFO
Видео
Идентификатор : 0
Формат : MPEG-4 Visual
Профиль формата : Advanced [email protected]
Параметр BVOP формата : 4
Параметр QPel формата : Нет
Параметр GMC формата : Без точки перехода
Параметр матрицы формата : Default (H.263)
Идентификатор кодека : XVID
Идентификатор кодека/Подсказка : XviD
Продолжительность : 1 ч. 44 м.
Битрейт : 1735 Кбит/сек
Ширина : 720 пикселей
Высота : 304 пикселя
Соотношение сторон : 2,35:1
Частота кадров : 59,940 кадров/сек
Цветовое пространство : YUV
Субдискретизация насыщенности : 4:2:0
Битовая глубина : 8 бит
Тип развёртки : Прогрессивная
Метод сжатия : С потерями
Бит/(Пиксели*Кадры) : 0.132
Размер потока : 1,27 Гбайт (86%)
Библиотека кодирования : XviD 73
Аудио
Идентификатор : 1
Формат : AC-3
Формат/Информация : Audio Coding 3
Идентификатор кодека : 2000
Продолжительность : 1 ч. 44 м.
Вид битрейта : Постоянный
Битрейт : 192 Кбит/сек
Каналы : 2 канала
Частота : 48,0 КГц
Метод сжатия : С потерями
Размер потока : 144 Мбайт (10%)
Выравнивание : Разделение по промежуткам

Скриншоты

[Цитировать]



Показать сообщения:    

Текущее время: 04-Дек 15:21

Часовой пояс: UTC + 3


Вы не можете начинать темы
Вы не можете отвечать на сообщения
Вы не можете редактировать свои сообщения
Вы не можете удалять свои сообщения
Вы не можете голосовать в опросах
Вы не можете прикреплять файлы к сообщениям
Вы не можете скачивать файлы

!ВНИМАНИЕ!
Сайт не предоставляет электронные версии произведений, а занимается лишь коллекционированием и каталогизацией ссылок, присылаемых и публикуемых на форуме нашими читателями. Если вы являетесь правообладателем какого-либо представленного материала и не желаете, чтобы ссылка на него находилась в нашем каталоге, свяжитесь с нами, и мы незамедлительно удалим ее. Файлы для обмена на трекере предоставлены пользователями сайта, и администрация не несет ответственности за их содержание. Просьба не заливать файлы, защищенные авторскими правами, а также файлы нелегального содержания!