[ Сегодня идет свободное скачивание без начисления Download ]


Статистика раздачи
Нет
 
   
 
Top  
 
 
Хозяин джунглей / El Ardor Название: Хозяин джунглей
Оригинальное название: El Ardor
Год выпуска: 2014
Жанр: Драма, вестерн
Выпущено: Аргентина, Мексика, Бразилия, Франция, США, Participant PanAmerica, Magma Cine, Canana Films
Режиссер: Пабло Фендрик
В ролях: Гаэль Гарсиа Берналь, Алиси Брага, Чико Диаз, Клаудио Толькачир, Хорхе Сесан, Иван Стейнхардт, Хулиан Тельо, Лаутаро Вило
О фильме: В далеких джунглях реки Параны творится беззаконие. Группа вооруженных наемников терроризирует население, насильно заставляя отказываться от участков земли в их пользу. Местным жителям не у кого искать помощи кроме духов реки. После проведения священного обряда из джунглей появляется таинственный молодой человек, который говорит, что он пришел помочь.

Качество: HDRip
Видео: XviD, 939 Кбит/с, 720x304
Аудио: MP3, 2 ch, 128 Кбит/с
Продолжительность: 01:36:10
Озвучивание: Профессиональное (многоголосое) [Лицензия]

mediainfo

General
Complete name : 3l.1rdor.2014.P.HDRip.745MB.E.avi
Format : AVI
Format/Info : Audio Video Interleave
File size : 745 MiB
Duration : 1h 36mn
Overall bit rate : 1 077 Kbps
Movie name : 3l.1rdor.2014.P.HDRip.745MB.ELEKTRI4KA.uniongang.tv
Writing application : VirtualDubMod 1.5.10.3 | www.virtualdub-fr.org || (build 2550/release)
Copyright : ELEKTRI4KA&UNIONGANG
Video
ID : 0
Format : MPEG-4 Visual
Format profile : Advanced Simple@L5
Format settings, BVOP : 2
Format settings, QPel : No
Format settings, GMC : No warppoints
Format settings, Matrix : Default (MPEG)
Codec ID : XVID
Codec ID/Hint : XviD
Duration : 1h 36mn
Bit rate : 939 Kbps
Width : 720 pixels
Height : 304 pixels
Display aspect ratio : 2.35:1
Frame rate : 25.000 fps
Color space : YUV
Chroma subsampling : 4:2:0
Bit depth : 8 bits
Scan type : Progressive
Compression mode : Lossy
Bits/(Pixel*Frame) : 0.172
Stream size : 650 MiB (87%)
Writing library : XviD 1.2.1 (UTC 2008-12-04)
Audio
ID : 1
Format : MPEG Audio
Format version : Version 1
Format profile : Layer 3
Mode : Joint stereo
Mode extension : MS Stereo
Codec ID : 55
Codec ID/Hint : MP3
Duration : 1h 36mn
Bit rate mode : Constant
Bit rate : 128 Kbps
Channel(s) : 2 channels
Sampling rate : 48.0 KHz
Compression mode : Lossy
Stream size : 88.5 MiB (12%)
Alignment : Aligned on interleaves
Interleave, duration : 40 ms (1.00 video frame)
Interleave, preload duration : 504 ms
Writing library : LAME3.99r
Encoding settings : -m j -V 4 -q 2 -lowpass 17 -b 128

Скриншоты

[Цитировать]



Показать сообщения:    

Текущее время: 10-Дек 04:14

Часовой пояс: UTC + 3


Вы не можете начинать темы
Вы не можете отвечать на сообщения
Вы не можете редактировать свои сообщения
Вы не можете удалять свои сообщения
Вы не можете голосовать в опросах
Вы не можете прикреплять файлы к сообщениям
Вы не можете скачивать файлы

!ВНИМАНИЕ!
Сайт не предоставляет электронные версии произведений, а занимается лишь коллекционированием и каталогизацией ссылок, присылаемых и публикуемых на форуме нашими читателями. Если вы являетесь правообладателем какого-либо представленного материала и не желаете, чтобы ссылка на него находилась в нашем каталоге, свяжитесь с нами, и мы незамедлительно удалим ее. Файлы для обмена на трекере предоставлены пользователями сайта, и администрация не несет ответственности за их содержание. Просьба не заливать файлы, защищенные авторскими правами, а также файлы нелегального содержания!