[ Сегодня идет свободное скачивание без начисления Download ]


Статистика раздачи
Нет
 
   
 
Top  
 
 
Звёздные войны: Пробуждение силы
Star Wars: Episode VII - The Force Awakens
«Every generation has a story»
Локализованный русский видеоряд

Страна: США
Жанр: фантастика, фэнтези, боевик, приключения
Год выпуска: 2015
Продолжительность: 02:18:06
Перевод: Профессиональный (полное дублирование)
Субтитры: русские (форсированные, полные), английские (полные, SDH)
Оригинальная аудиодорожка: нет
Режиссер: Джей Джей Абрамс / J.J. Abrams
В ролях: Джон Бойега, Дэйзи Ридли, Оскар Айзек, Адам Драйвер, Донал Глисон, Харрисон Форд, Марк Хэмилл, Кэрри Фишер, Макс фон Сюдов, Энди Серкис, Лупита Нионго, Энтони Дэниелс
Описание:
Через тридцать лет после гибели Дарта Вейдера и Императора галактика по-прежнему в опасности. Государственное образование Первый Орден во главе с таинственным верховным лидером Сноуком и его правой рукой Кайло Реном идёт по стопам Империи, пытаясь захватить всю власть. В это нелёгкое время судьба сводит юную девушку Рей и бывшего штурмовика Первого Ордена Финна с героями войны с Империей - Ханом Соло, Чубаккой и генералом Леей. Вместе они должны дать бой Первому Ордену, однако настаёт тот момент, когда становится очевидно, что лишь джедаи могут остановить Сноука и Кайло Рена.

Релиз:
Сэмпл
Качество видео: BDRip-AVC [HDCLUB / Blu-ray Disc / 1080p]
Формат видео: MKV
Видео кодек: AVC
Аудио кодек: AC3
Видео: 1317 Кбит/сек, 888x370 (2.40:1), 23,976 кадр/сек, AVC
Аудио: русский, 192 Кбит/сек, 48 КГц, 16 бит, 2.0, AC3
Навигация по главам: есть

MediaInfo

Общее
Уникальный идентификатор : 210551065298391303598438162567265074981 (0x9E66A8FF76EFD8E2BC283B5B49AD3F25)
Полное имя : M:1RipsStar Wars Episode VII - The Force AwakensStar.Wars.Episode.VII.The.Force.Awakens.2015.BDRip-AVC.Dub.1.45Gb.stalkerok.new-team.mkv
Формат : Matroska
Версия формата : Version 4 / Version 2
Размер файла : 1,46 Гбайт
Продолжительность : 2 ч. 18 м.
Общий поток : 1511 Кбит/сек
Название фильма : Star Wars: Episode VII - The Force Awakens (2015) (New-Team) (Rip by Stalker oK)
Дата кодирования : UTC 2016-04-23 14:45:11
Программа кодирования : mkvmerge v8.6.1 ('Flying') 64bit
Библиотека кодирования : libebml v1.3.3 + libmatroska v1.4.4
Видео
Идентификатор : 1
Формат : AVC
Формат/Информация : Advanced Video Codec
Профиль формата : [email protected]
Параметр CABAC формата : Да
Параметр ReFrames формата : 14 кадров
Идентификатор кодека : V_MPEG4/ISO/AVC
Продолжительность : 2 ч. 18 м.
Битрейт : 1317 Кбит/сек
Ширина : 888 пикселей
Высота : 370 пикселей
Соотношение сторон : 2,40:1
Режим частоты кадров : Постоянный
Частота кадров : 23,976 (24000/1001) кадра/сек
Цветовое пространство : YUV
Субдискретизация насыщенности : 4:2:0
Битовая глубина : 8 бит
Тип развёртки : Прогрессивная
Бит/(Пиксели*Кадры) : 0.167
Размер потока : 1,27 Гбайт (87%)
Заголовок : Star Wars: Episode VII - The Force Awakens (2015) (New-Team) (Rip by Stalker oK)
Библиотека кодирования : x264 core 148 r2665kMod a01e339
Настройки программы : cabac=1 / ref=14 / deblock=1:-3:-3 / analyse=0x3:0x133 / me=umh / subme=11 / psy=1 / fade_compensate=0.00 / psy_rd=1.00:0.02 / mixed_ref=1 / me_range=48 / chroma_me=1 / trellis=2 / 8x8dct=1 / cqm=0 / deadzone=21,11 / fast_pskip=0 / chroma_qp_offset=-3 / threads=12 / lookahead_threads=2 / sliced_threads=0 / nr=0 / decimate=0 / interlaced=0 / bluray_compat=0 / constrained_intra=0 / fgo=0 / bframes=15 / b_pyramid=2 / b_adapt=2 / b_bias=0 / direct=3 / weightb=1 / open_gop=0 / weightp=2 / keyint=240 / keyint_min=23 / scenecut=40 / intra_refresh=0 / rc_lookahead=60 / rc=2pass / mbtree=0 / bitrate=1317 / ratetol=1.0 / qcomp=0.70 / qpmin=0 / qpmax=69 / qpstep=4 / cplxblur=20.0 / qblur=0.5 / vbv_maxrate=50000 / vbv_bufsize=62500 / nal_hrd=none / filler=0 / ip_ratio=1.40 / pb_ratio=1.30 / aq=3:0.95
Default : Да
Forced : Нет
Аудио
Идентификатор : 2
Формат : AC-3
Формат/Информация : Audio Coding 3
Расширение режима : CM (complete main)
Параметр Endianness формата : Big
Идентификатор кодека : A_AC3
Продолжительность : 2 ч. 18 м.
Вид битрейта : Постоянный
Битрейт : 192 Кбит/сек
Каналы : 2 канала
Расположение каналов : Front: L R
Частота : 48,0 КГц
Частота кадров : 31,250 кадров/сек (1536 spf)
Метод сжатия : С потерями
Размер потока : 190 Мбайт (13%)
Язык : Russian
Default : Да
Forced : Нет
Текст #1
Идентификатор : 3
Формат : UTF-8
Идентификатор кодека : S_TEXT/UTF8
Идентификатор кодека/Информация : UTF-8 Plain Text
Продолжительность : 58 м.
Битрейт : 1 бит/сек
Count of elements : 10
Размер потока : 470 байт (0%)
Заголовок : Forced
Язык : Russian
Default : Да
Forced : Нет
Текст #2
Идентификатор : 4
Формат : UTF-8
Идентификатор кодека : S_TEXT/UTF8
Идентификатор кодека/Информация : UTF-8 Plain Text
Продолжительность : 2 ч. 3 м.
Битрейт : 67 бит/сек
Count of elements : 1420
Размер потока : 61,2 Кбайт (0%)
Язык : Russian
Default : Нет
Forced : Нет
Текст #3
Идентификатор : 5
Формат : UTF-8
Идентификатор кодека : S_TEXT/UTF8
Идентификатор кодека/Информация : UTF-8 Plain Text
Продолжительность : 2 ч. 0 м.
Битрейт : 40 бит/сек
Count of elements : 1403
Размер потока : 35,9 Кбайт (0%)
Язык : English
Default : Нет
Forced : Нет
Текст #4
Идентификатор : 6
Формат : UTF-8
Идентификатор кодека : S_TEXT/UTF8
Идентификатор кодека/Информация : UTF-8 Plain Text
Продолжительность : 2 ч. 6 м.
Битрейт : 50 бит/сек
Count of elements : 1778
Размер потока : 47,1 Кбайт (0%)
Заголовок : SDH
Язык : English
Default : Нет
Forced : Нет
Меню
00:00:00.000 : en:Chapter 1
00:00:09.259 : en:Chapter 2
00:01:43.061 : en:Chapter 3
00:03:51.856 : en:Chapter 4
00:06:12.288 : en:Chapter 5
00:09:33.948 : en:Chapter 6
00:10:43.559 : en:Chapter 7
00:12:35.713 : en:Chapter 8
00:13:39.693 : en:Chapter 9
00:14:48.220 : en:Chapter 10
00:16:45.921 : en:Chapter 11
00:18:04.583 : en:Chapter 12
00:19:21.535 : en:Chapter 13
00:21:26.618 : en:Chapter 14
00:24:03.650 : en:Chapter 15
00:26:47.022 : en:Chapter 16
00:29:54.667 : en:Chapter 17
00:31:49.324 : en:Chapter 18
00:35:51.774 : en:Chapter 19
00:36:40.615 : en:Chapter 20
00:37:45.513 : en:Chapter 21
00:40:19.250 : en:Chapter 22
00:43:39.199 : en:Chapter 23
00:45:29.560 : en:Chapter 24
00:49:22.918 : en:Chapter 25
00:51:19.951 : en:Chapter 26
00:54:13.750 : en:Chapter 27
00:59:48.793 : en:Chapter 28
01:04:16.060 : en:Chapter 29
01:08:37.238 : en:Chapter 30
01:11:07.221 : en:Chapter 31
01:15:16.386 : en:Chapter 32
01:16:49.896 : en:Chapter 33
01:19:37.522 : en:Chapter 34
01:20:56.893 : en:Chapter 35
01:25:36.172 : en:Chapter 36
01:32:12.568 : en:Chapter 37
01:35:29.014 : en:Chapter 38
01:36:34.955 : en:Chapter 39
01:39:28.629 : en:Chapter 40
01:41:29.958 : en:Chapter 41
01:42:57.504 : en:Chapter 42
01:45:00.002 : en:Chapter 43
01:50:33.710 : en:Chapter 44
01:53:39.771 : en:Chapter 45
01:55:22.165 : en:Chapter 46
01:58:05.453 : en:Chapter 47
02:01:05.591 : en:Chapter 48
02:02:32.678 : en:Chapter 49
02:07:07.578 : en:Chapter 50

Скриншоты



Последний раз редактировалось: Henkok (2016-04-24 19:59), всего редактировалось 1 раз

[Цитировать]

Henkok, шрифт уменьшите очень гиганский

[Цитировать]



Показать сообщения:    

Текущее время: 04-Дек 21:27

Часовой пояс: UTC + 3


Вы не можете начинать темы
Вы не можете отвечать на сообщения
Вы не можете редактировать свои сообщения
Вы не можете удалять свои сообщения
Вы не можете голосовать в опросах
Вы не можете прикреплять файлы к сообщениям
Вы не можете скачивать файлы

!ВНИМАНИЕ!
Сайт не предоставляет электронные версии произведений, а занимается лишь коллекционированием и каталогизацией ссылок, присылаемых и публикуемых на форуме нашими читателями. Если вы являетесь правообладателем какого-либо представленного материала и не желаете, чтобы ссылка на него находилась в нашем каталоге, свяжитесь с нами, и мы незамедлительно удалим ее. Файлы для обмена на трекере предоставлены пользователями сайта, и администрация не несет ответственности за их содержание. Просьба не заливать файлы, защищенные авторскими правами, а также файлы нелегального содержания!