[ Сегодня идет свободное скачивание без начисления Download ]


Статистика раздачи
Нет
 
   
 
 
 
- НашПотребНадзор. Не дай себя обмануть! (2016.04.24) SATRip - Производство: НТВ
Жанр: Документальный
Ведущий: Олег Солнцев
Описание:
Создатели нового потребительского проекта «НашПотребНадзор» проведут журналистские расследования на волнующие каждого зрителя темы, в деталях расскажут, как не попасться на уловки мошенников, обличат виновных и на ярких примерах объяснят, как отличить качественное от низкосортного.
Для того чтобы максимально полно и объективно раскрыть тему каждого выпуска и защитить права простых граждан, корреспонденты программы готовы буквально все опробовать на себе: трудоустроиться на завод, чтобы выяснить, как производится тот или иной товар, отправиться по кабинетам и призвать к ответу нерадивых чиновников или организовать очную ставку между производителем и покупателем, пострадавшим от некачественной продукции. Зрителей ждут острые журналистские расследования и реконструкции, яркие эксперименты и информативная графика — все ради того, чтобы доказать: наша жизнь действительно может быть долгой, удобной и безопасной, и за это совсем не обязательно переплачивать!
Релиз от: -=FOX=-
Продолжительность: 00:47:50
Качество видео: SATRip
Субтитры: Отсутствуют
Видео: MPEG4, XviD, 720x448 (1.607), 25.000 fps, 1 800 Kbps (0.223 bit/pixel)
Аудио: MP3, 48.0 KHz, 2 ch, 128 Kbps, CBR

Mediainfo:

Формат                                   : AVI
Формат/Информация                        : Audio Video Interleave
Размер файла                             : 663 Мбайт
Продолжительность                        : 47 м.
Общий поток                              : 1937 Кбит/сек
Программа кодирования                    : VirtualDubMod 1.5.10.3 | [url=http://www.virtualdub-fr.org]www.virtualdub-fr.org[/url] || (build 2550/release)
Библиотека кодирования                   : VirtualDubMod build 2550/release
Видео
Идентификатор                            : 0
Формат                                   : MPEG-4 Visual
Профиль формата                          : Advanced Simple@L5
Параметр BVOP формата                    : 2
Параметр QPel формата                    : Нет
Параметр GMC формата                     : Без точки перехода
Параметр матрицы формата                 : Default (H.263)
Идентификатор кодека                     : XVID
Идентификатор кодека/Подсказка           : XviD
Продолжительность                        : 47 м.
Битрейт                                  : 1800 Кбит/сек
Ширина                                   : 720 пикселей
Высота                                   : 448 пикселей
Соотношение сторон                       : 16:10
Частота кадров                           : 25,000 кадров/сек
Цветовое пространство                    : YUV
Субдискретизация насыщенности            : 4:2:0
Битовая глубина                          : 8 бит
Тип развёртки                            : Прогрессивная
Метод сжатия                             : С потерями
Бит/(Пиксели*Кадры)                      : 0.223
Размер потока                            : 616 Мбайт (93%)
Библиотека кодирования                   : XviD 1.2.1 (UTC 2008-12-04)
Аудио
Идентификатор                            : 1
Формат                                   : MPEG Audio
Версия формата                           : Version 1
Профиль формата                          : Layer 3
Идентификатор кодека                     : 55
Идентификатор кодека/Подсказка           : MP3
Продолжительность                        : 47 м.
Вид битрейта                             : Постоянный
Битрейт                                  : 128 Кбит/сек
Каналы                                   : 2 канала
Частота                                  : 48,0 КГц
Метод сжатия                             : С потерями
Размер потока                            : 43,8 Мбайт (7%)
Выравнивание                             : Соединение по промежуткам
Продолжительность промежутка             : 40  мс. (1,00 видеокадр)
Время предзагрузки промежутка            : 504  мс.
Библиотека кодирования                   : LAME3.99r
Настройки программы                      : -m s -V 4 -q 2 -lowpass 17 -b 128

В выпуске:

Что скрывают пачки самых популярных пельменей в российских магазинах? В каких поселилась кишечная палочка? Почему в одних регионах страны — очереди к зубным врачам, а в других стоматологи сидят без работы? Насколько опасно чистить зубы в ванной и от каких стоматологов лучше держаться подальше? Какая она, самая опасная бытовая химия в вашем доме, ведущая к раку и слепоте?
Скриншоты:

[Цитировать]



Показать сообщения:    

Текущее время: 09-Дек 04:57

Часовой пояс: UTC + 3


Вы не можете начинать темы
Вы не можете отвечать на сообщения
Вы не можете редактировать свои сообщения
Вы не можете удалять свои сообщения
Вы не можете голосовать в опросах
Вы не можете прикреплять файлы к сообщениям
Вы не можете скачивать файлы

!ВНИМАНИЕ!
Сайт не предоставляет электронные версии произведений, а занимается лишь коллекционированием и каталогизацией ссылок, присылаемых и публикуемых на форуме нашими читателями. Если вы являетесь правообладателем какого-либо представленного материала и не желаете, чтобы ссылка на него находилась в нашем каталоге, свяжитесь с нами, и мы незамедлительно удалим ее. Файлы для обмена на трекере предоставлены пользователями сайта, и администрация не несет ответственности за их содержание. Просьба не заливать файлы, защищенные авторскими правами, а также файлы нелегального содержания!