[ Сегодня идет свободное скачивание без начисления Download ]


Статистика раздачи
Нет
 
   
 
Top  
 
 
- Он снова здесь / Er ist wieder da (2015) HDRip- Производство: Германия, Claussen Wöbke Putz Filmproduktion, Constantin Film Produktion GmbH, Mythos Film
Жанр: Комедия
Режиссер: Давид Внендт
Актеры: Оливер Мазуччи, Фабиан Буш, Кристоф Мария, Хербст Катя, Риман Франциска, Вульф Ларс, Рудольф Михаэль, Кесслер Даниэль, Аминати Даги Би Фред Аарон Блаке
Описание:
Берлин, наши дни. На заброшенном пустыре возвращается к жизни черный кошмар XX века — Адольф Гитлер, кровавый диктатор, погрузивший Германию, а за нею и половину человечества в ужас Второй мировой войны, непосредственный виновник десятков миллионов смертей. Ни власти, ни сторонников, ни жилья, ни денег у него теперь нет, но есть опыт восхождения со дна на вершины и твердая вера в победу национал-социализма. Неподготовленный мир принимает бывшего диктатора за гениального актера, его гневные речи взрывают интернет, и… Гитлер второй раз в жизни обретает статус суперзвезды. Чем же это обернется в наше время?

Дата мировой премьеры: 8 октября 2015
Продолжительность: 01:55:36
Качество видео: HDRip Сэмпл
Перевод: Любительский двухголосый
Язык субтитров: Отсутствует
Реклама: Присутствуют вставки голосовой и текстовой рекламы
Видео: XviD, 1611 Кбит/с, 720x384
Аудио: AC3, 2 ch, 192 Кбит/с

Mediainfo:

General
Complete name                    : O:\On.snova.TuT.2O15.DVO.HDRip.1.46Gb_KOSHERA.avi
Format                           : AVI
Format/Info                      : Audio Video Interleave
File size                        : 1.46 GiB
Duration                         : 1h 55mn
Overall bit rate                 : 1 813 Kbps
Writing application              : VirtualDubMod 1.5.10.2 (build 2540/release)
Writing library                  : VirtualDubMod build 2540/release
Video
ID                               : 0
Format                           : MPEG-4 Visual
Format profile                   : Advanced [email protected]
Format settings, BVOP            : Yes
Format settings, QPel            : No
Format settings, GMC             : No warppoints
Format settings, Matrix          : Custom
Codec ID                         : XVID
Codec ID/Hint                    : XviD
Duration                         : 1h 55mn
Bit rate                         : 1 612 Kbps
Width                            : 720 pixels
Height                           : 384 pixels
Display aspect ratio             : 1.875
Frame rate                       : 24.000 fps
Resolution                       : 8 bits
Colorimetry                      : 4:2:0
Scan type                        : Progressive
Bits/(Pixel*Frame)               : 0.243
Stream size                      : 1.30 GiB (89%)
Writing library                  : XviD 1.2.1 (UTC 2008-12-04)
Audio
ID                               : 1
Format                           : AC-3
Format/Info                      : Audio Coding 3
Codec ID                         : 2000
Duration                         : 1h 55mn
Bit rate mode                    : Constant
Bit rate                         : 192 Kbps
Channel(s)                       : 2 channels
Channel positions                : L R
Sampling rate                    : 48.0 KHz
Stream size                      : 158 MiB (11%)
Alignment                        : Split accross interleaves
Interleave, duration             : 42 ms (1.00 video frame)
Interleave, preload duration     : 500 ms
Скриншоты:

[Цитировать]



Показать сообщения:    

Текущее время: 04-Дек 02:59

Часовой пояс: UTC + 3


Вы не можете начинать темы
Вы не можете отвечать на сообщения
Вы не можете редактировать свои сообщения
Вы не можете удалять свои сообщения
Вы не можете голосовать в опросах
Вы не можете прикреплять файлы к сообщениям
Вы не можете скачивать файлы

!ВНИМАНИЕ!
Сайт не предоставляет электронные версии произведений, а занимается лишь коллекционированием и каталогизацией ссылок, присылаемых и публикуемых на форуме нашими читателями. Если вы являетесь правообладателем какого-либо представленного материала и не желаете, чтобы ссылка на него находилась в нашем каталоге, свяжитесь с нами, и мы незамедлительно удалим ее. Файлы для обмена на трекере предоставлены пользователями сайта, и администрация не несет ответственности за их содержание. Просьба не заливать файлы, защищенные авторскими правами, а также файлы нелегального содержания!