[ Сегодня идет свободное скачивание без начисления Download ]


Статистика раздачи
Буду качать: [ 1 ]
Качаю: [ 3 ]
Скачал: [ 13 ]
 
   
 
Top  
 
 
- Highlights School | Основы веб-дизайна (2015) PCRec - Автор (режиссер): Михаил Ведерников
Жанр: Web, дизайн
Описание:
Этот курс подойдет тем кто хочет научится создавать дизайн веб-сайтов и мобильных приложений с нуля!
На каждом занятии вы не только узнаете новую и интересную информацию, но и попробуете все сами, на практике в виде домашних заданий, а так же получите обратную связь от преподавателя.
Что вы будете уметь после прохождения курса? 
• Создавать с нуля дизайн-макеты сайтов и мобильных приложений.
• Знать инструменты Photoshop и уметь грамотно их применять на своих работах.
• Создавать красивые элементы интерфейса (кнопки, меню, формы, UI-киты и др…).
• Рисовать стильные иконки в разных стилях (контурные, плоские, реалистичные, flat и в стиле 3D).
• Уметь подбирать и сочетать разные шрифты в веб-дизайне.
• Уметь работать с цветом, знать сочетания цветов и как создать шикарную стилистику сайта.
• Знать все техники для создания идеальной и красивой инфографики.
• Иметь четкий алгоритм работы с заказчиком (сбор информации, презентации макета).
И многое другое...
Продолжительность: 17:38:54
Качество видео: PCRec
Видео: AVC/H.264, 1280x720, ~916 - 1019 Kbps
Аудио: AAC, 2 ch, 117 Kbps, CBR

Подробный план занятий:

Занятие № 1. Проектирование сайта и создание прототипа.
● Исследование и выявление задач заказчика.
● Как определить целевую аудитории?
● Как управлять фокусом внимания пользователя?
● Основные элементы вебсайта и их функции.
● Основные композиции и блоки сайта.
● Создаем прототип сайта учебного проекта
Занятие №2. Дизайн интерфейса.
● Задача кнопок и форм на сайте.
● Создание кнопок и меню на сайте.
● Разработка интерфейса в стиле Flat.
● Создание интерфейса в реалистичном стиле .
● Создание форм заявки и подписки.
● Основы создания Ui kit в Adobe Photoshop.
Занятие № 3. Дизайн иконок.
● Задача иконок на сайте.
● С чего начать ?
● Какие бывают стили иконок?
● Правила оформления иконок.
● Создаем сет иконок в разных стилях
Занятие № 4. Шрифты и цвета
● Какие бывают шрифты?
● Алгоритм подбора шрифтов для сайта.
● Основные правила оформления текста.
● Передача эмоций с помощью цвета.
● Сочетание различных цветов и их оттенков.
● Инструменты подбора цветовой схемы для веб.
Занятие №5. Содание инфографики.
● Зачем нужна инфографика?
● Как используется инфографика в веб?
● Алгоритм создания инфографики.
● Правила оформления инфографики.
● Создаем блок с инфографикой для своего сайта.
Занятие №6. Создание макета сайта.
● Модульная сетка и выравнивание.
● Композиция блоков сайта на примерах.
● Организация макета в Adobe Photoshop.
● Как донести свою мысль до разработчика?
● Отрисовка главного экрана сайта.
● Отрисовка разделов и дипломного проекта.

Mediainfo:

General
Complete name                            : C:\torrent\Основы веб-дизайна\1\Занятие 1 - Разработка прототипа.m4v
Format                                   : MPEG-4
Format profile                           : Base Media
Codec ID                                 : isom (mp41)
File size                                : 1.16 GiB
Duration                                 : 2h 41mn
Overall bit rate                         : 1 030 Kbps
Encoded date                             : UTC 2015-06-10 19:53:40
Tagged date                              : UTC 2015-06-10 19:53:40
Video
ID                                       : 2
Format                                   : AVC
Format/Info                              : Advanced Video Codec
Format profile                           : Baseline@L3
Format settings, CABAC                   : No
Format settings, ReFrames                : 1 frame
Format settings, GOP                     : M=1, N=25
Codec ID                                 : avc1
Codec ID/Info                            : Advanced Video Coding
Duration                                 : 2h 41mn
Bit rate                                 : 916 Kbps
Width                                    : 1 280 pixels
Height                                   : 720 pixels
Display aspect ratio                     : 16:9
Frame rate mode                          : Constant
Frame rate                               : 24.000 fps
Color space                              : YUV
Chroma subsampling                       : 4:2:0
Bit depth                                : 8 bits
Scan type                                : Progressive
Bits/(Pixel*Frame)                       : 0.041
Stream size                              : 1.03 GiB (89%)
Language                                 : English
Audio
ID                                       : 1
Format                                   : AAC
Format/Info                              : Advanced Audio Codec
Format profile                           : LC
Codec ID                                 : 40
Duration                                 : 2h 41mn
Bit rate mode                            : Constant
Bit rate                                 : 110 Kbps
Channel(s)                               : 2 channels
Channel positions                        : Front: L R
Sampling rate                            : 44.1 KHz
Frame rate                               : 43.066 fps (1024 spf)
Compression mode                         : Lossy
Stream size                              : 127 MiB (11%)
Language                                 : English
General
Complete name                            : C:\torrent\Основы веб-дизайна\2\Задание.txt
File size                                : 460 Bytes
General
Complete name                            : C:\torrent\Основы веб-дизайна\2\Занятие 2 - Дизайн Интерфейса.m4v
Format                                   : MPEG-4
Format profile                           : Base Media
Codec ID                                 : isom (mp41)
File size                                : 2.04 GiB
Duration                                 : 3h 47mn
Overall bit rate                         : 1 287 Kbps
Encoded date                             : UTC 2015-06-13 23:02:10
Tagged date                              : UTC 2015-06-13 23:02:10
Video
ID                                       : 2
Format                                   : AVC
Format/Info                              : Advanced Video Codec
Format profile                           : Baseline@L3
Format settings, CABAC                   : No
Format settings, ReFrames                : 1 frame
Format settings, GOP                     : M=1, N=25
Codec ID                                 : avc1
Codec ID/Info                            : Advanced Video Coding
Duration                                 : 3h 47mn
Bit rate                                 : 1 166 Kbps
Width                                    : 1 280 pixels
Height                                   : 720 pixels
Display aspect ratio                     : 16:9
Frame rate mode                          : Constant
Frame rate                               : 24.000 fps
Color space                              : YUV
Chroma subsampling                       : 4:2:0
Bit depth                                : 8 bits
Scan type                                : Progressive
Bits/(Pixel*Frame)                       : 0.053
Stream size                              : 1.85 GiB (91%)
Language                                 : English
Audio
ID                                       : 1
Format                                   : AAC
Format/Info                              : Advanced Audio Codec
Format profile                           : LC
Codec ID                                 : 40
Duration                                 : 3h 47mn
Bit rate mode                            : Constant
Bit rate                                 : 116 Kbps
Channel(s)                               : 2 channels
Channel positions                        : Front: L R
Sampling rate                            : 44.1 KHz
Frame rate                               : 43.066 fps (1024 spf)
Compression mode                         : Lossy
Stream size                              : 189 MiB (9%)
Language                                 : English
General
Complete name                            : C:\torrent\Основы веб-дизайна\3\Задание.txt
File size                                : 231 Bytes
General
Complete name                            : C:\torrent\Основы веб-дизайна\3\Занятие 3.m4v
Format                                   : MPEG-4
Format profile                           : Base Media
Codec ID                                 : isom (mp41)
File size                                : 1.30 GiB
Duration                                 : 2h 36mn
Overall bit rate                         : 1 193 Kbps
Encoded date                             : UTC 2015-06-17 19:38:32
Tagged date                              : UTC 2015-06-17 19:38:32
Video
ID                                       : 2
Format                                   : AVC
Format/Info                              : Advanced Video Codec
Format profile                           : Baseline@L3
Format settings, CABAC                   : No
Format settings, ReFrames                : 1 frame
Format settings, GOP                     : M=1, N=25
Codec ID                                 : avc1
Codec ID/Info                            : Advanced Video Coding
Duration                                 : 2h 36mn
Bit rate                                 : 1 072 Kbps
Width                                    : 1 280 pixels
Height                                   : 720 pixels
Display aspect ratio                     : 16:9
Frame rate mode                          : Constant
Frame rate                               : 24.000 fps
Color space                              : YUV
Chroma subsampling                       : 4:2:0
Bit depth                                : 8 bits
Scan type                                : Progressive
Bits/(Pixel*Frame)                       : 0.048
Stream size                              : 1.17 GiB (90%)
Language                                 : English
Audio
ID                                       : 1
Format                                   : AAC
Format/Info                              : Advanced Audio Codec
Format profile                           : LC
Codec ID                                 : 40
Duration                                 : 2h 36mn
Bit rate mode                            : Constant
Bit rate                                 : 117 Kbps
Channel(s)                               : 2 channels
Channel positions                        : Front: L R
Sampling rate                            : 44.1 KHz
Frame rate                               : 43.066 fps (1024 spf)
Compression mode                         : Lossy
Stream size                              : 131 MiB (10%)
Language                                 : English
General
Complete name                            : C:\torrent\Основы веб-дизайна\3\Презентация. Урок №3 - Основы работы в adobe photoshop.pdf
Format                                   : PDF
Format version                           : 1.3
File size                                : 194 KiB
Text
Format                                   : PDF
General
Complete name                            : C:\torrent\Основы веб-дизайна\4\Ierarkhia_vnimania_elementov.png
Format                                   : PNG
Format/Info                              : Portable Network Graphic
File size                                : 43.3 KiB
Image
Format                                   : PNG
Format/Info                              : Portable Network Graphic
Width                                    : 1 250 pixels
Height                                   : 721 pixels
Bit depth                                : 32 bits
Compression mode                         : Lossless
Stream size                              : 43.3 KiB (100%)
General
Complete name                            : C:\torrent\Основы веб-дизайна\4\Kompozitsia_po_levomu_krayu.png
Format                                   : PNG
Format/Info                              : Portable Network Graphic
File size                                : 32.4 KiB
Image
Format                                   : PNG
Format/Info                              : Portable Network Graphic
Width                                    : 1 024 pixels
Height                                   : 645 pixels
Bit depth                                : 32 bits
Compression mode                         : Lossless
Stream size                              : 32.4 KiB (100%)
General
Complete name                            : C:\torrent\Основы веб-дизайна\4\Kompozitsia_po_tsentru.png
Format                                   : PNG
Format/Info                              : Portable Network Graphic
File size                                : 37.3 KiB
Image
Format                                   : PNG
Format/Info                              : Portable Network Graphic
Width                                    : 1 138 pixels
Height                                   : 642 pixels
Bit depth                                : 32 bits
Compression mode                         : Lossless
Stream size                              : 37.3 KiB (100%)
General
Complete name                            : C:\torrent\Основы веб-дизайна\4\Shablon_maketa.psd
Format                                   : PSD
Format/Info                              : Photoshop File Format
File size                                : 8.42 MiB
Image
Format                                   : PSD
Format/Info                              : Photoshop File Format
Format version                           : 1
Width                                    : 1 920 pixels
Height                                   : 1 920 pixels
Color space                              : RGB
Bit depth                                : 8 bits
Compression mode                         : Lossless
General
Complete name                            : C:\torrent\Основы веб-дизайна\4\Задание.txt
File size                                : 278 Bytes
General
Complete name                            : C:\torrent\Основы веб-дизайна\4\Занятие 4 - Шрифты, Цвета, Основы композиции.m4v
Format                                   : MPEG-4
Format profile                           : Base Media
Codec ID                                 : isom (mp41)
File size                                : 1.33 GiB
Duration                                 : 2h 59mn
Overall bit rate                         : 1 065 Kbps
Encoded date                             : UTC 2015-06-21 20:52:07
Tagged date                              : UTC 2015-06-21 20:52:07
Video
ID                                       : 2
Format                                   : AVC
Format/Info                              : Advanced Video Codec
Format profile                           : Baseline@L3
Format settings, CABAC                   : No
Format settings, ReFrames                : 1 frame
Format settings, GOP                     : M=1, N=25
Codec ID                                 : avc1
Codec ID/Info                            : Advanced Video Coding
Duration                                 : 2h 59mn
Bit rate                                 : 948 Kbps
Width                                    : 1 280 pixels
Height                                   : 720 pixels
Display aspect ratio                     : 16:9
Frame rate mode                          : Constant
Frame rate                               : 24.000 fps
Color space                              : YUV
Chroma subsampling                       : 4:2:0
Bit depth                                : 8 bits
Scan type                                : Progressive
Bits/(Pixel*Frame)                       : 0.043
Stream size                              : 1.19 GiB (89%)
Language                                 : English
Audio
ID                                       : 1
Format                                   : AAC
Format/Info                              : Advanced Audio Codec
Format profile                           : LC
Codec ID                                 : 40
Duration                                 : 2h 59mn
Bit rate mode                            : Constant
Bit rate                                 : 112 Kbps
Channel(s)                               : 2 channels
Channel positions                        : Front: L R
Sampling rate                            : 44.1 KHz
Frame rate                               : 43.066 fps (1024 spf)
Compression mode                         : Lossy
Stream size                              : 143 MiB (10%)
Language                                 : English
General
Complete name                            : C:\torrent\Основы веб-дизайна\5\lamp.jpg
Format                                   : JPEG
File size                                : 115 KiB
Image
Format                                   : JPEG
Width                                    : 626 pixels
Height                                   : 626 pixels
Color space                              : YUV
Chroma subsampling                       : 4:4:4
Bit depth                                : 8 bits
Compression mode                         : Lossy
Stream size                              : 115 KiB (100%)
Скриншоты:

[Цитировать]



Показать сообщения:    

Текущее время: 07-Дек 00:55

Часовой пояс: UTC + 3


Вы не можете начинать темы
Вы не можете отвечать на сообщения
Вы не можете редактировать свои сообщения
Вы не можете удалять свои сообщения
Вы не можете голосовать в опросах
Вы не можете прикреплять файлы к сообщениям
Вы не можете скачивать файлы

!ВНИМАНИЕ!
Сайт не предоставляет электронные версии произведений, а занимается лишь коллекционированием и каталогизацией ссылок, присылаемых и публикуемых на форуме нашими читателями. Если вы являетесь правообладателем какого-либо представленного материала и не желаете, чтобы ссылка на него находилась в нашем каталоге, свяжитесь с нами, и мы незамедлительно удалим ее. Файлы для обмена на трекере предоставлены пользователями сайта, и администрация не несет ответственности за их содержание. Просьба не заливать файлы, защищенные авторскими правами, а также файлы нелегального содержания!