[ Сегодня идет свободное скачивание без начисления Download ]


Статистика раздачи
Нет
 
   
 
Top  
 
 
-КВН-2016. Высшая лига (2016) SATRip- Телекомпания: Первый канал
Жанр: Юмор
Ведущий: Александр Масляков
Жюри: Александр Масляков, Александр Масляков мл., Михаил Галустян, Леонид Купридо (редактор Международной лиги КВН)
Описание:
Что такое КВН, знают, без сомнения, все. В КВН играют во всем мире, это прежде всего молодежная игра. Постоянные конкурсные задания: "Визитная карточка", "Разминка", "Конкурс капитанов", "Музыкальный конкурс", "Домашнее задание". Игру команд оценивает профессиональное жюри — люди, у которых с чувством юмора все в порядке, многие из них раньше сами играли в КВН. Среди членов жюри были Константин Эрнст, Леонид Парфенов, Юлий Гусман, Леонид Ярмольник, Валдис Пельш, Сергей Шолохов, Геннадий Хазанов и другие. Кроме самих игр проводятся ежегодные встречи: фестиваль команд КВН (с 1990 г., семь раз фестиваль проходил в г.Сочи), музыкальный фестиваль КВН, летний кубок КВН, международные товарищеские игры в КВН. Сборная КВН играет со сборными других стран. Уже состоялись игры между сборной КВН и сборными Америки, Австралии, Израиля... Игра в КВН для многих становится профессией, а многие благодаря игре связывают жизнь с искусством. Из КВН "вышли": Леонид Якубович, Михаил Марфин, Татьяна Лазарева, Олег Филимонов, Юлий Гусман и многие другие.
Продолжительность: 02:00:00 каждая игра
Качество видео: SATRip
Видео: XviD, 704x448, 1797 kb/s
Аудио: 48 kHz, AC3 Dolby Digital, 2/0 (L,R) ch, ~192 kbps

Команды:

КВН-2016. Высшая лига. КВН на Красной поляне. Старт сезона (2016.02.22)
«Сборная Великобритании "Da Dobro"», г. Лондон
«Эпатаж», г. Казань
«Умные люди», РВВКДУ г. Рязань
«Сборная 2-х вузов Москвы МИСИС», г. Москва
«Экскурсия по городу», г. Новосибирск
«Город развлечений», Московская область, г. Суханово
«Уфа», г. Башкартастан
«МФЮА», г. Москва, Волгоград
«Монди», г. Сыктывкар
«Физтех», г. Долгопрудный
«Чистые пруды», г. Москва
«Дружба народов», г. Москва
«Спарта», г. Астана
«Лучшие друзья», г. Минск, Беларусь
«Московского большого государственного цирка», г. Москва
«Высшей школы экономики», г. Москва
«Радиосвобода», г. Ярославль
«Сура», г. Пенза
«Урал», г. Нижний Тагил
«Горизонт», г. Москва
«Русская дорога», г. Армавир
«Мега», г. Москва
«Доброжелательный роман», г. Санкт-Петербург
«Проигрыватель», г. Тамбов
«Азиямикс», г. Бишкек
Сборная города Мурманска
«Сборная Камызякского края по КВНу», Астраханская область
КВН-2016. Высшая лига. 1.8 финала. Игра 1 (2016.02.28)
Хара Морин, Республика Бурятия
Сборная республики Татарстан
«Проигрыватель» ТГУ им. Державина, Тамбов
Сборная Большого Московского Государственного Цирка, Москва
«Радио Свобода», Ярославль
КВН-2016. Высшая лига. 1.8 финала. Игра 2 (2016.03.13)
Сборная МФЮА (Москва-Волгоград)
Сборная «Монди СЛПК» (Сыктывкар)
«Приказ 390» ФСИН России (Воронеж)
«Доброжелательный Роман» (Санкт-Петербург)
«Экскурсия по городу» (Новосибирская область)
КВН-2016. Высшая лига. 1.8 финала. Игра 3 (2016.03.27)
«Азия Mix» (Бишкек)
Сборная Физтеха (Долгопрудный)
Сборная вузов ГУУ и МИСиС (Москва)
«Уфа», Республика Башкортостан
Сборная АГПУ «Русская дорога» (Армавир)
КВН-2016. Высшая лига. 1.8 финала. Игра 4 (2016.04.03)
«Спарта» (Астана)
«Чистые пруды», РЭУ им. Г.В. Плеханова (Москва)
Сборная города Мурманска
«Урал» (Нижний Тагил)
«Лучшие друзья» БГПУ (Минск)
КВН-2016. Высшая лига. 1.4 финала. Игра 1 (2016.04.10)
«Радио Свобода», Ярославль
Сборная вузов ГУУ и МИСиС, Москва
«Доброжелательный Роман», Санкт-Петербург
«Приказ 390», ФСИН России
КВН-2016. Высшая лига. 1.4 финала. Игра 2 (2016.04.17)
Сборная Большого Московского Государственного Цирка, Москва
«Русская дорога», АГПУ, Армавир
Сборная МФЮА, Москва – Волгоград
«Азия Mix», Бишкек
КВН-2016. Высшая лига. 1.4 финала. Игра 3 (2016.04.24)
«Проигрыватель» ТГУ им. Г.Р. Державина, Тамбов
«Спарта», Астана
Сборная города Мурманска
«Чистые пруды», Москва

Внимание! Раздача ведётся путём добавления новых серий

Внимание! Раздача ведётся путём добавления новых серий; при каждом добавлении создаётся новый торрент.
Чтобы начать докачку новой серии, пользователям необходимо сделать следующее:
1. Остановить скачивание;
2. Удалить старый торрент у себя из клиента (старые серии удалять не надо);
3. Скачать новый торрент и запустить его у себя в клиенте вместо старого, при этом указать клиенту путь в старую папку куда и должно происходить скачивание новых серий. Ваш клиент при этом должен произвести хеширование (проверку) старой папки и будет докачивать только те серии, которых у вас ещё нет. Старые серии при этом не удаляются, а продолжают раздаваться! Eсли вы уже удалили старые серии, то предотвратить повторную закачку старых серий можно, отжав галочку в соответствующих местах при запуске нового торрента.

MI

Общее
Полное имя : D:\Релизы\01. КВН-2016. Высшая лига. КВН на Красной поляне. Старт сезона (2016.02.22).avi
Формат : AVI
Формат/Информация : Audio Video Interleave
Размер файла : 1,83 Гбайт
Продолжительность : 2 ч. 11 м.
Общий поток : 1998 Кбит/сек
Программа кодирования : VirtualDubMod 1.5.10.3 |(build 2550/release)
Библиотека кодирования : VirtualDub build 35491/release
Видео
Идентификатор : 0
Формат : MPEG-4 Visual
Профиль формата : Advanced Simple@L5
Параметр BVOP формата : 2
Параметр QPel формата : Нет
Параметр GMC формата : Без точки перехода
Параметр матрицы формата : Default (H.263)
Идентификатор кодека : XVID
Идентификатор кодека/Подсказка : XviD
Продолжительность : 2 ч. 11 м.
Битрейт : 1797 Кбит/сек
Ширина : 704 пикселя
Высота : 448 пикселей
Соотношение сторон : 16:10
Частота кадров : 25,000 кадров/сек
Цветовое пространство : YUV
Субдискретизация насыщенности : 4:2:0
Битовая глубина : 8 бит
Тип развёртки : Прогрессивная
Метод сжатия : С потерями
Бит/(Пиксели*Кадры) : 0.228
Размер потока : 1,65 Гбайт (90%)
Библиотека кодирования : XviD 1.2.1 (UTC 2008-12-04)
Аудио
Идентификатор : 1
Формат : AC-3
Формат/Информация : Audio Coding 3
Расширение режима : CM (complete main)
Параметр Endianness формата : Big
Идентификатор кодека : 2000
Продолжительность : 2 ч. 11 м.
Вид битрейта : Постоянный
Битрейт : 192 Кбит/сек
Каналы : 2 канала
Расположение каналов : Front: L R
Частота : 48,0 КГц
Метод сжатия : С потерями
Размер потока : 180 Мбайт (10%)
Выравнивание : Разделение по промежуткам
Продолжительность промежутка : 40 мс. (1,00 видеокадр)
Время предзагрузки промежутка : 500 мс.
Скриншоты:

[Цитировать]



Показать сообщения:    

Текущее время: 08-Дек 23:09

Часовой пояс: UTC + 3


Вы не можете начинать темы
Вы не можете отвечать на сообщения
Вы не можете редактировать свои сообщения
Вы не можете удалять свои сообщения
Вы не можете голосовать в опросах
Вы не можете прикреплять файлы к сообщениям
Вы не можете скачивать файлы

!ВНИМАНИЕ!
Сайт не предоставляет электронные версии произведений, а занимается лишь коллекционированием и каталогизацией ссылок, присылаемых и публикуемых на форуме нашими читателями. Если вы являетесь правообладателем какого-либо представленного материала и не желаете, чтобы ссылка на него находилась в нашем каталоге, свяжитесь с нами, и мы незамедлительно удалим ее. Файлы для обмена на трекере предоставлены пользователями сайта, и администрация не несет ответственности за их содержание. Просьба не заливать файлы, защищенные авторскими правами, а также файлы нелегального содержания!