[ Сегодня идет свободное скачивание без начисления Download ]


Статистика раздачи
Нет
 
   
 
Top  
 
 
Сестры / Sisters (2015) BDRip-AVC
«Когда они вместе, город не спит»
Информация о фильме
Название: Сестры
Оригинальное название: Sisters
Год выхода: 2015
Жанр: Комедия
Режиссер: Джейсон Мур
В ролях: Эми Полер, Тина Фей, Майя Рудольф, Айк Баринхолц, Джеймс Бролин, Дайэнн Уист, Джон Сина, Джон Легуизамо, Бобби Мойнахан, Грета Ли
О фильме:
Две сестры решают устроить одну последнюю вечеринку в их семейном доме, прежде чем родители продадут его.

Страна: США
Студия: Little Stranger
Продолжительность: 01:57:46
Перевод: Профессиональный (полное дублирование)[BD CEE]
Файл
Качество: BDRip-AVC (исх. Sisters (2015) [Theatrical Cut] Blu-ray CEE 1080p AVC DD5.1)
Кодек: MPEG-4 AVC
Видео: 912x380 (2.40:1), 23,976 fps, MPEG-4 AVC ~1583 kbps avg, 0.191 bit/pixel
Звук: 48 kHz, AC3, 2 ch, ~192.00 kbps avg | русский | Профессиональный (полное дублирование)[BD CEE]
Субтитры: Английские (SDH)
Семпл
*Видеоряд от potroks
* Сборка данного рипа от stillet

Инфо-файл

Общее
Уникальный идентификатор : 245459533710534240753353989763711903381 (0xB8A9C95F540C42628D19DE4F21502695)
Полное имя : D:TorrentsЗавершенныеSisters.2015.D.BDRip.AVC.mkv
Формат : Matroska
Версия формата : Version 4 / Version 2
Размер файла : 1,46 Гбайт
Продолжительность : 1 ч. 57 м.
Общий поток : 1776 Кбит/сек
Название фильма : Sisters.2015.D.BDRip.AVC
Дата кодирования : UTC 2016-04-24 14:26:01
Программа кодирования : mkvmerge v8.3.0 ('Over the Horizon') 64bit
Библиотека кодирования : libebml v1.3.1 + libmatroska v1.4.2
Видео
Идентификатор : 1
Формат : AVC
Формат/Информация : Advanced Video Codec
Профиль формата : [email protected]
Параметр CABAC формата : Да
Параметр ReFrames формата : 12 кадров
Идентификатор кодека : V_MPEG4/ISO/AVC
Продолжительность : 1 ч. 57 м.
Битрейт : 1583 Кбит/сек
Ширина : 912 пикселей
Высота : 380 пикселей
Соотношение сторон : 2,40:1
Режим частоты кадров : Постоянный
Частота кадров : 23,976 (24000/1001) кадра/сек
Цветовое пространство : YUV
Субдискретизация насыщенности : 4:2:0
Битовая глубина : 8 бит
Тип развёртки : Прогрессивная
Бит/(Пиксели*Кадры) : 0.191
Размер потока : 1,30 Гбайт (89%)
Заголовок : Sisters.2015.D.BDRip.AVC
Библиотека кодирования : x264 core 148 r2665M a01e339
Настройки программы : cabac=1 / ref=12 / deblock=1:-2:-2 / analyse=0x3:0x133 / me=umh / subme=11 / psy=1 / psy_rd=1.02:0.10 / mixed_ref=1 / me_range=48 / chroma_me=1 / trellis=2 / 8x8dct=1 / cqm=0 / deadzone=21,11 / fast_pskip=0 / chroma_qp_offset=-3 / threads=9 / lookahead_threads=2 / sliced_threads=0 / nr=0 / decimate=1 / interlaced=0 / bluray_compat=0 / constrained_intra=0 / bframes=13 / b_pyramid=2 / b_adapt=2 / b_bias=0 / direct=3 / weightb=1 / open_gop=0 / weightp=2 / keyint=240 / keyint_min=23 / scenecut=40 / intra_refresh=0 / rc=2pass / mbtree=0 / bitrate=1583 / ratetol=1.0 / qcomp=0.70 / qpmin=0 / qpmax=69 / qpstep=4 / cplxblur=20.0 / qblur=0.5 / ip_ratio=1.35 / pb_ratio=1.25 / aq=1:0.80
Язык : English
Default : Да
Forced : Нет
Аудио
Идентификатор : 2
Формат : AC-3
Формат/Информация : Audio Coding 3
Расширение режима : CM (complete main)
Параметр Endianness формата : Big
Идентификатор кодека : A_AC3
Продолжительность : 1 ч. 57 м.
Вид битрейта : Постоянный
Битрейт : 192 Кбит/сек
Каналы : 2 канала
Расположение каналов : Front: L R
Частота : 48,0 КГц
Частота кадров : 31,250 кадров/сек (1536 spf)
Метод сжатия : С потерями
Размер потока : 162 Мбайт (11%)
Заголовок : Dub | DD 2.0 @ 448 kbps - Blu Rya CEE
Язык : Russian
Default : Да
Forced : Нет
Текст
Идентификатор : 3
Формат : UTF-8
Идентификатор кодека : S_TEXT/UTF8
Идентификатор кодека/Информация : UTF-8 Plain Text
Продолжительность : 1 ч. 52 м.
Битрейт : 98 бит/сек
Count of elements : 2479
Размер потока : 80,6 Кбайт (0%)
Заголовок : SDH
Язык : English
Default : Нет
Forced : Нет
Меню
00:00:00.000 : :(01)00:00:00:000
00:07:48.176 : :(02)00:07:48:176
00:13:55.543 : :(03)00:13:55:543
00:17:50.861 : :(04)00:17:50:861
00:23:15.018 : :(05)00:23:15:018
00:28:56.526 : :(06)00:28:56:526
00:33:05.108 : :(07)00:33:05:108
00:38:01.445 : :(08)00:38:01:445
00:43:41.869 : :(09)00:43:41:869
00:47:39.064 : :(10)00:47:39:064
00:53:23.491 : :(11)00:53:23:491
00:59:15.927 : :(12)00:59:15:927
01:06:01.749 : :(13)01:06:01:749
01:13:13.972 : :(14)01:13:13:972
01:19:03.029 : :(15)01:19:03:029
01:26:25.304 : :(16)01:26:25:304
01:32:26.332 : :(17)01:32:26:332
01:40:15.467 : :(18)01:40:15:467
01:46:12.240 : :(19)01:46:12:240
01:50:56.774 : :(20)01:50:56:774

Скриншоты

[Цитировать]



Показать сообщения:    

Текущее время: 05-Дек 17:39

Часовой пояс: UTC + 3


Вы не можете начинать темы
Вы не можете отвечать на сообщения
Вы не можете редактировать свои сообщения
Вы не можете удалять свои сообщения
Вы не можете голосовать в опросах
Вы не можете прикреплять файлы к сообщениям
Вы не можете скачивать файлы

!ВНИМАНИЕ!
Сайт не предоставляет электронные версии произведений, а занимается лишь коллекционированием и каталогизацией ссылок, присылаемых и публикуемых на форуме нашими читателями. Если вы являетесь правообладателем какого-либо представленного материала и не желаете, чтобы ссылка на него находилась в нашем каталоге, свяжитесь с нами, и мы незамедлительно удалим ее. Файлы для обмена на трекере предоставлены пользователями сайта, и администрация не несет ответственности за их содержание. Просьба не заливать файлы, защищенные авторскими правами, а также файлы нелегального содержания!