[ Today is free to download without increasing Download ]

DL-List and Torrent activity
Complete: [ 8 ]
- ProfIT | Node.js Express: Создаём веб-приложение быстро (2016) PCRec - Автор (режиссер): Государев Илья
Жанр: Node.js, backend, web
Node.js - серверная платформа, работающая на основе JavaScript. Однако создавать веб-приложение на Node без дополнительных инструментов обычно неудобно. Давайте приступим к изучению популярнейшего фреймворка для Node.js!
Что такое endpoint? Что такое маршрут? Что такое dynamic URL part? Что такое middleware? Как понять сущность Express в качестве фреймворка?
Попробуйте создать простое веб-приложение с Express+AJAX и продолжайте изучение одной из самых современных и быстро развивающихся веб-технологий!
Продолжительность: 01:45:28
Качество видео: PCRec
Видео: AVC/H.264, 640x360, ~204 Kbps
Аудио: AAC, 2 ch, 96 Kbps, VBR


Complete name : C:\torrent\2016-04-20 Вебинар «Node.js Express_ Создаём веб-приложение быстро».mp4
Format : MPEG-4
Format profile : Base Media / Version 2
Codec ID : mp42 (isom/mp42)
File size : 228 MiB
Duration : 1h 45mn
Overall bit rate mode : Variable
Overall bit rate : 303 Kbps
Encoded date : UTC 2016-04-22 08:33:52
Tagged date : UTC 2016-04-22 08:33:52
gsst : 0
gstd : 6328063
ID : 1
Format : AVC
Format/Info : Advanced Video Codec
Format profile : Baseline@L3
Format settings, CABAC : No
Format settings, ReFrames : 1 frame
Format settings, GOP : M=1, N=60
Codec ID : avc1
Codec ID/Info : Advanced Video Coding
Duration : 1h 45mn
Bit rate : 204 Kbps
Maximum bit rate : 903 Kbps
Width : 640 pixels
Height : 360 pixels
Display aspect ratio : 16:9
Frame rate mode : Constant
Frame rate : 30.000 fps
Color space : YUV
Chroma subsampling : 4:2:0
Bit depth : 8 bits
Scan type : Progressive
Bits/(Pixel*Frame) : 0.030
Stream size : 154 MiB (67%)
Tagged date : UTC 2016-04-22 08:34:09
ID : 2
Format : AAC
Format/Info : Advanced Audio Codec
Format profile : LC
Codec ID : 40
Duration : 1h 45mn
Bit rate mode : Variable
Bit rate : 96.0 Kbps
Maximum bit rate : 103 Kbps
Channel(s) : 2 channels
Channel positions : Front: L R
Sampling rate : 44.1 KHz
Frame rate : 43.066 fps (1024 spf)
Compression mode : Lossy
Stream size : 72.4 MiB (32%)
Title : IsoMedia File Produced by Google, 5-11-2011
Language : English
Encoded date : UTC 2016-04-22 08:34:01
Tagged date : UTC 2016-04-22 08:34:09


Display posts:    

Current time is: 27-Oct 13:56

All times are UTC + 3

You cannot post new topics in this forum
You cannot reply to topics in this forum
You cannot edit your posts in this forum
You cannot delete your posts in this forum
You cannot vote in polls in this forum
You cannot attach files in this forum
You cannot download files in this forum

The site does not give electronic versions of products, and is engaged only in a collecting and cataloguing of the references sent and published at a forum by our readers. If you are the legal owner of any submitted material and do not wish that the reference to it was in our catalogue, contact us and we shall immediately remove her. Files for an exchange on tracker are given by users of a site, and the administration does not bear the responsibility for their maintenance. The request to not fill in the files protected by copyrights, and also files of the illegal maintenance!