[ Сегодня идет свободное скачивание без начисления Download ]


Статистика раздачи
Нет
 
   
 
Top  
 
 
Герой«С верой за Россию» Год выхода: 2016
Страна: Россия
Производство: Фонд кино
Жанр: Драма, военный
Режиссер: Юрий Васильев
В ролях: Дима Билан, Светлана Иванова, Александр Балуев, Татьяна Лютаева, Юлия Пересильд, Александр Головин, Марат Башаров, Александр Адабашьян, Лилита Озолиня, Александр Васильев
Перевод: Не требуется [iTunes]
Субтитры: Отсутствуют Начало ХХ века. Юная княжна Вера Чернышева и поручик Андрей Долматов знакомятся при весьма странных обстоятельствах. Симпатия, любовь… впереди, казалось, счастливая жизнь. И вдруг — катастрофа. Первая мировая война уводит его на фронт, а ее — медсестрой в госпиталь. Мир перевернулся, он охвачен ненавистью, злобой, жаждой власти. Одна война сменяет другую. Люди делятся на два враждующих лагеря, начинают судить друг друга, чинить жестокую расправу. Огонь времени губит все на своем пути, но любовь — бессмертна, она соединяет несколько поколений и напоминает о себе спустя сто лет. Качество: WEB-DLRip
Продолжительность: 01:16:10 час
Формат: AVI
Видеокодек: XviD
Аудиокодек: MP3
Видео: 640x352 (1.82:1), 23.976 fps, XviD build 64 ~1163 kbps avg, 0.22 bit/pixel
Аудио: 48 kHz, MPEG Layer 3, 2 ch, ~192.00 kbps avg
Дата премьеры (РФ): 31 марта 2016, «Каропрокат»

Mediainfo

Общее
Полное имя : D:\GerOy.2O16.O.WEB-DLRip.745 MB.avi
Формат : AVI
Формат/Информация : Audio Video Interleave
Размер файла : 746 Мбайт
Продолжительность : 1 ч. 16 м.
Общий поток : 1369 Кбит/сек
Программа кодирования : Lavf54.63.104
Видео
Идентификатор : 0
Формат : xvid
Идентификатор кодека : xvid
Продолжительность : 1 ч. 16 м.
Битрейт : 1164 Кбит/сек
Ширина : 640 пикселей
Высота : 352 пикселя
Соотношение сторон : 16:9
Частота кадров : 23,976 кадра/сек
Бит/(Пиксели*Кадры) : 0.216
Размер потока : 634 Мбайт (85%)
Аудио
Идентификатор : 1
Формат : MPEG Audio
Версия формата : Version 1
Профиль формата : Layer 3
Режим : Joint stereo
Идентификатор кодека : 55
Идентификатор кодека/Подсказка : MP3
Продолжительность : 1 ч. 16 м.
Вид битрейта : Постоянный
Битрейт : 192 Кбит/сек
Каналы : 2 канала
Частота : 48,0 КГц
Метод сжатия : С потерями
Размер потока : 105 Мбайт (14%)
Выравнивание : Соединение по промежуткам
Продолжительность промежутка : 24 мс. (0,58 видеокадр)

Скриншоты

[Цитировать]



Показать сообщения:    

Текущее время: 02-Дек 21:02

Часовой пояс: UTC + 3


Вы не можете начинать темы
Вы не можете отвечать на сообщения
Вы не можете редактировать свои сообщения
Вы не можете удалять свои сообщения
Вы не можете голосовать в опросах
Вы не можете прикреплять файлы к сообщениям
Вы не можете скачивать файлы

!ВНИМАНИЕ!
Сайт не предоставляет электронные версии произведений, а занимается лишь коллекционированием и каталогизацией ссылок, присылаемых и публикуемых на форуме нашими читателями. Если вы являетесь правообладателем какого-либо представленного материала и не желаете, чтобы ссылка на него находилась в нашем каталоге, свяжитесь с нами, и мы незамедлительно удалим ее. Файлы для обмена на трекере предоставлены пользователями сайта, и администрация не несет ответственности за их содержание. Просьба не заливать файлы, защищенные авторскими правами, а также файлы нелегального содержания!