[ Сегодня идет свободное скачивание без начисления Download ]


Статистика раздачи
Нет
 
   
 
Top  
 
 
- Специальный полуночный выпуск / Midnight Special (2016) HDRip - Производство: США
Жанр: Триллер, Фантастика, Приключения
Режиссер: Джефф Николс
Продюсер: Сара Грин, Брайан Кэвэна-Джонс, Глен Баснер
Актеры: Майкл Шеннон, Джоэл Эдгертон, Кирстен Данст, Джейден Либерер, Адам Драйвер, Билл Кэмп, Скотт Хэйз, Сэм Шепард, Пол Спаркс, Дэвид Дженсен
Описание:
Невероятная история об отце Рое и его сыне Альтоне. Они вынуждены были покинуть общину секты в Техасе и отправится в некое место, в определенное время. Рой узнал, что его сын обладает колоссальными сверхъестественными способностями, поэтому его и нужно доставить в это некое место. По началу за сына и отца начинают преследовать сектанты, у которых свои планы на мальчика. Но когда об Альтоне узнают спец. службы, сразу на поиски мальчика подключается ФБР и у них не менее амбициозные планы на парня...

Рейтинг MPAA: PG-13 (детям до 13 лет просмотр нежелателен)
Дата мировой премьеры: 12 февраля 2016
Продолжительность: 01:51:51
Качество видео: HDRip Сэмпл
Перевод: Одноголосый закадровый, любительский (Хихидок)
Язык субтитров: Китайский
Вид субтитров: Вшитые неотключаемые
Видео: Xvid, 720x304, ~1562 Kbps
Аудио: MP3, 2 ch, 192 Kbps, CBR

Mediainfo:

Общее
Полное имя                               : D:\FILMЬl\APRIDONG\Specialnuiii.Polunochnuii.avi
Формат                                   : AVI
Формат/Информация                        : Audio Video Interleave
Размер файла                             : 1,38 Гбайт
Продолжительность                        : 1 ч. 51 м.
Общий поток                              : 1763 Кбит/сек
Программа кодирования                    : VirtualDubMod 1.5.10.3 (build 2550/release)
Библиотека кодирования                   : VirtualDubMod build 2550/release
Видео
Идентификатор                            : 0
Формат                                   : MPEG-4 Visual
Профиль формата                          : Advanced Simple@L5
Параметр BVOP формата                    : 2
Параметр QPel формата                    : Нет
Параметр GMC формата                     : Без точки перехода
Параметр матрицы формата                 : Default (H.263)
Режим смешивания                         : Сжатый битовый поток
Идентификатор кодека                     : XVID
Идентификатор кодека/Подсказка           : XviD
Продолжительность                        : 1 ч. 51 м.
Битрейт                                  : 1562 Кбит/сек
Ширина                                   : 720 пикселей
Высота                                   : 304 пикселя
Соотношение сторон                       : 2,35:1
Частота кадров                           : 23,976 кадра/сек
Цветовое пространство                    : YUV
Субдискретизация насыщенности            : 4:2:0
Битовая глубина                          : 8 бит
Тип развёртки                            : Прогрессивная
Метод сжатия                             : С потерями
Бит/(Пиксели*Кадры)                      : 0.298
Размер потока                            : 1,22 Гбайт (89%)
Библиотека кодирования                   : XviD 65
Аудио
Идентификатор                            : 1
Формат                                   : MPEG Audio
Версия формата                           : Version 1
Профиль формата                          : Layer 3
Идентификатор кодека                     : 55
Идентификатор кодека/Подсказка           : MP3
Продолжительность                        : 1 ч. 51 м.
Вид битрейта                             : Постоянный
Битрейт                                  : 192 Кбит/сек
Каналы                                   : 2 канала
Частота                                  : 44,1 КГц
Метод сжатия                             : С потерями
Размер потока                            : 154 Мбайт (11%)
Выравнивание                             : Разделение по промежуткам
Продолжительность промежутка             : 42  мс. (1,00 видеокадр)
Время предзагрузки промежутка            : 500  мс.
Скриншоты:

[Цитировать]



Показать сообщения:    

Текущее время: 10-Дек 19:39

Часовой пояс: UTC + 3


Вы не можете начинать темы
Вы не можете отвечать на сообщения
Вы не можете редактировать свои сообщения
Вы не можете удалять свои сообщения
Вы не можете голосовать в опросах
Вы не можете прикреплять файлы к сообщениям
Вы не можете скачивать файлы

!ВНИМАНИЕ!
Сайт не предоставляет электронные версии произведений, а занимается лишь коллекционированием и каталогизацией ссылок, присылаемых и публикуемых на форуме нашими читателями. Если вы являетесь правообладателем какого-либо представленного материала и не желаете, чтобы ссылка на него находилась в нашем каталоге, свяжитесь с нами, и мы незамедлительно удалим ее. Файлы для обмена на трекере предоставлены пользователями сайта, и администрация не несет ответственности за их содержание. Просьба не заливать файлы, защищенные авторскими правами, а также файлы нелегального содержания!