[ Сегодня идет свободное скачивание без начисления Download ]


Статистика раздачи
Нет
 
   
 
Top  
 
 
Благословенная Мария / Maria Full of Grace (2004) HDTVRip 720p Информация о фильме
Название: Благословенная Мария
Оригинальное название: Maria Full of Grace
Год выхода: 2004
Жанр: драма, криминал
Режиссер: Джошуа Марстон
В ролях: Каталина Сандино Морено, Вирхина Ариса, Йени Паола Вега, Родриго Санчес Бороркес, Чарльз Альберт Патиньо, Уилсон Герерро, Джоанна Андреа Мора, Фабрисио Суарес, Матео Суарес, Эванхелина Моралес
О фильме:
Мария вместе с подружкой Бланкой работает на цветочной плантации, но её увольняют, и нужен новый источник дохода. Ей предлагают стать «живым контейнером» для перевозки наркотиков, а вскоре и Бланка попадает в руки драг-дилеров. Подруги садятся на самолёт, летящий в Америку. В желудке Марии 62 пакетика героина…

Страна: Колумбия, США, Эквадор
Студия: HBO Films, Fine Line Features, Journeyman Pictures
Продолжительность: 01:34:04.960
Перевод: Профессиональный (многоголосый, закадровый) Amedia
Профессиональный (многоголосый, закадровый) R5
Файл
Кодек: h.264
Качество: HDTVRip 720p Исходник HDTV 1080i Amedia Hit
Видео: 1280x720 (16:9), 25.000 fps, AVC, ~3200 Kbps, 0.139 bits/pixel
Звук:
Русский, 48.0 KHz, AC3, 2 ch, 192 Kbps Amedia
Русский, 48.0 KHz, AC3, 2 ch, 192 Kbps R5
Испанский, 48.0 KHz, AC3, 2 ch, 192 Kbps
Субтитры: нет
В отличии от BD и рипов с него, никакого хардсаба.

MI

Общее
Уникальный идентификатор : 245961259222735519393191833071892836155 (0xB90A6A5998906500B7918F07183C2F3B)
Полное имя : E:FILMSBlagoslovennaya_Maria.2004.HDTVRip720p.mkv
Формат : Matroska
Версия формата : Version 4 / Version 2
Размер файла : 2,48 Гбайт
Продолжительность : 1 ч. 34 м.
Общий поток : 3778 Кбит/сек
Дата кодирования : UTC 2016-04-25 22:40:58
Программа кодирования : mkvmerge v9.1.0 ('Little Earthquakes') 64bit
Библиотека кодирования : libebml v1.3.3 + libmatroska v1.4.4
Видео
Идентификатор : 1
Формат : AVC
Формат/Информация : Advanced Video Codec
Профиль формата : [email protected]
Параметр CABAC формата : Да
Параметр ReFrames формата : 9 кадров
Идентификатор кодека : V_MPEG4/ISO/AVC
Продолжительность : 1 ч. 34 м.
Битрейт : 3200 Кбит/сек
Ширина : 1280 пикселей
Высота : 720 пикселей
Соотношение сторон : 16:9
Режим частоты кадров : Постоянный
Частота кадров : 25,000 кадров/сек
Цветовое пространство : YUV
Субдискретизация насыщенности : 4:2:0
Битовая глубина : 8 бит
Тип развёртки : Прогрессивная
Бит/(Пиксели*Кадры) : 0.139
Размер потока : 2,10 Гбайт (85%)
Библиотека кодирования : x264 core 148 r2638 7599210
Настройки программы : cabac=1 / ref=9 / deblock=1:-3:-3 / analyse=0x3:0x133 / me=umh / subme=11 / psy=1 / psy_rd=1.10:0.15 / mixed_ref=1 / me_range=48 / chroma_me=1 / trellis=2 / 8x8dct=1 / cqm=0 / deadzone=21,11 / fast_pskip=0 / chroma_qp_offset=-3 / threads=8 / lookahead_threads=1 / sliced_threads=0 / nr=0 / decimate=0 / interlaced=0 / bluray_compat=0 / constrained_intra=0 / bframes=7 / b_pyramid=2 / b_adapt=2 / b_bias=0 / direct=3 / weightb=1 / open_gop=0 / weightp=2 / keyint=250 / keyint_min=25 / scenecut=40 / intra_refresh=0 / rc_lookahead=60 / rc=2pass / mbtree=0 / bitrate=3200 / ratetol=1.0 / qcomp=0.60 / qpmin=0 / qpmax=69 / qpstep=4 / cplxblur=20.0 / qblur=0.5 / vbv_maxrate=40000 / vbv_bufsize=50000 / nal_hrd=none / filler=0 / ip_ratio=1.40 / pb_ratio=1.30 / aq=1:1.00
Default : Нет
Forced : Нет
Цветовой диапазон : Limited
Основные цвета : BT.709
Характеристики трансфера : BT.709
Коэффициенты матрицы : BT.709
Аудио #1
Идентификатор : 2
Формат : AC-3
Формат/Информация : Audio Coding 3
Расширение режима : CM (complete main)
Параметр Endianness формата : Big
Идентификатор кодека : A_AC3
Продолжительность : 1 ч. 34 м.
Вид битрейта : Постоянный
Битрейт : 192 Кбит/сек
Каналы : 2 канала
Расположение каналов : Front: L R
Частота : 48,0 КГц
Частота кадров : 31,250 кадров/сек (1536 spf)
Метод сжатия : С потерями
Размер потока : 129 Мбайт (5%)
Заголовок : Amedia
Язык : Russian
Default : Да
Forced : Нет
Аудио #2
Идентификатор : 3
Формат : AC-3
Формат/Информация : Audio Coding 3
Расширение режима : CM (complete main)
Параметр Endianness формата : Big
Идентификатор кодека : A_AC3
Продолжительность : 1 ч. 34 м.
Вид битрейта : Постоянный
Битрейт : 192 Кбит/сек
Каналы : 2 канала
Расположение каналов : Front: L R
Частота : 48,0 КГц
Частота кадров : 31,250 кадров/сек (1536 spf)
Метод сжатия : С потерями
Размер потока : 129 Мбайт (5%)
Заголовок : R5
Язык : Russian
Default : Нет
Forced : Нет
Аудио #3
Идентификатор : 4
Формат : AC-3
Формат/Информация : Audio Coding 3
Расширение режима : CM (complete main)
Параметр Endianness формата : Big
Идентификатор кодека : A_AC3
Продолжительность : 1 ч. 34 м.
Вид битрейта : Постоянный
Битрейт : 192 Кбит/сек
Каналы : 2 канала
Расположение каналов : Front: L R
Частота : 48,0 КГц
Частота кадров : 31,250 кадров/сек (1536 spf)
Метод сжатия : С потерями
Размер потока : 129 Мбайт (5%)
Язык : Spanish
Default : Нет
Forced : Нет

Скриншоты

[Цитировать]



Показать сообщения:    

Текущее время: 04-Дек 04:59

Часовой пояс: UTC + 3


Вы не можете начинать темы
Вы не можете отвечать на сообщения
Вы не можете редактировать свои сообщения
Вы не можете удалять свои сообщения
Вы не можете голосовать в опросах
Вы не можете прикреплять файлы к сообщениям
Вы не можете скачивать файлы

!ВНИМАНИЕ!
Сайт не предоставляет электронные версии произведений, а занимается лишь коллекционированием и каталогизацией ссылок, присылаемых и публикуемых на форуме нашими читателями. Если вы являетесь правообладателем какого-либо представленного материала и не желаете, чтобы ссылка на него находилась в нашем каталоге, свяжитесь с нами, и мы незамедлительно удалим ее. Файлы для обмена на трекере предоставлены пользователями сайта, и администрация не несет ответственности за их содержание. Просьба не заливать файлы, защищенные авторскими правами, а также файлы нелегального содержания!