[ Сегодня идет свободное скачивание без начисления Download ]


Статистика раздачи
Нет
 
   
 
Top  
 
 
2016: Конец ночи / Hell
«Солнце нас сожжёт»
?Год выпуска: 2011
?Страна: Германия, Швейцария
?Производство: Caligari Film
?Жанр: Ужасы, фантастика, триллер
?Режиссёр: Тим Фельбаум
?В ролях: Ханна Херцшпрунг, Ларс Айдингер, Стипе Эрчег, Лиза Викари, Йоанн Бланк, Марко Каламандрей, Кристоф Гоглер, Ангела Винклер
?Перевод: Профессиональный (полное дублирование) + Оригинал (Немецкий)
?Озвучка: Неизвестно
?Субтитры: Русские (UTF-8)
?Описание: Перед тем, как окончательно погаснуть, Солнце увеличилось до невероятных размеров и выжгло всю Землю, превратив ее в непригодную для жизни пустыню. Среди немногих выживших группа молодых людей, которые отправились в горы в поисках воды и пищи. Но эта мысль посетила не только их и очень скоро ребята оказываются втянуты в безжалостную борьбу за выживание.

?Качество: BDRip 720p
?Продолжительность: 01:29:27 час.
?Формат: MKV
?Главы: Есть
?Видео кодек: AVC
?Аудио кодек: AC3, DTS
?Видео: 1280 x 544 (2,35:1), 23,976 fps, ~4091 kbps, 0.245 bit/ pixel
?Аудио №1: Русский 48 kHz, AC3 5.1 ch, ~384 kbps | Дубляж
?Аудио №2: Немецкий 48 kHz, DTS 5.1 ch, ~1510 kbps | Оригинал

MediaInfo

Общее
Уникальный идентификатор : 185739486734853500195423216025432350560 (0x8BBC1FBA414D1395AF9E0F9911D1DF60)
Полное имя : Z:2016-Konec.nochi.2011.x264.BDRip(720p).mkv
Формат : Matroska
Версия формата : Version 2
Размер файла : 3,73 Гбайт
Продолжительность : 1 ч. 29 м.
Общий поток : 5977 Кбит/сек
Название фильма : --SCHUMAHER--
Дата кодирования : UTC 2012-05-01 11:49:02
Программа кодирования : mkvmerge v5.5.0 ('Healer') built on Apr 6 2012 21:43:24
Библиотека кодирования : libebml v1.2.3 + libmatroska v1.3.0
Видео
Идентификатор : 1
Формат : AVC
Формат/Информация : Advanced Video Codec
Профиль формата : High@L4.1
Параметр CABAC формата : Да
Параметр ReFrames формата : 10 кадров
Идентификатор кодека : V_MPEG4/ISO/AVC
Продолжительность : 1 ч. 29 м.
Битрейт : 4091 Кбит/сек
Ширина : 1280 пикселей
Высота : 544 пикселя
Соотношение сторон : 2,35:1
Частота кадров : 23,976 кадра/сек
Цветовое пространство : YUV
Субдискретизация насыщенности : 4:2:0
Битовая глубина : 8 бит
Тип развёртки : Прогрессивная
Бит/(Пиксели*Кадры) : 0.245
Размер потока : 2,48 Гбайт (66%)
Библиотека кодирования : x264 core 120 r2146 bcd41db
Настройки программы : cabac=1 / ref=10 / deblock=1:-3:-3 / analyse=0x3:0x113 / me=umh / subme=10 / psy=1 / psy_rd=1.00:0.05 / mixed_ref=1 / me_range=32 / chroma_me=1 / trellis=2 / 8x8dct=1 / cqm=0 / deadzone=21,11 / fast_pskip=0 / chroma_qp_offset=-2 / threads=8 / sliced_threads=0 / nr=0 / decimate=1 / interlaced=0 / bluray_compat=0 / constrained_intra=0 / bframes=5 / b_pyramid=2 / b_adapt=2 / b_bias=0 / direct=3 / weightb=1 / open_gop=0 / weightp=2 / keyint=250 / keyint_min=23 / scenecut=40 / intra_refresh=0 / rc_lookahead=40 / rc=2pass / mbtree=0 / bitrate=4091 / ratetol=1.0 / qcomp=0.70 / qpmin=0 / qpmax=69 / qpstep=4 / cplxblur=20.0 / qblur=0.5 / vbv_maxrate=40000 / vbv_bufsize=30000 / nal_hrd=none / ip_ratio=1.40 / pb_ratio=1.30 / aq=2:0.90
Язык : German
Default : Да
Forced : Да
Аудио #1
Идентификатор : 2
Формат : AC-3
Формат/Информация : Audio Coding 3
Расширение режима : CM (complete main)
Параметр Endianness формата : Big
Идентификатор кодека : A_AC3
Продолжительность : 1 ч. 29 м.
Вид битрейта : Постоянный
Битрейт : 384 Кбит/сек
Каналы : 6 каналов
Расположение каналов : Front: L C R, Side: L R, LFE
Частота : 48,0 КГц
Битовая глубина : 16 бит
Метод сжатия : С потерями
Размер потока : 246 Мбайт (6%)
Язык : Russian
Default : Да
Forced : Да
Аудио #2
Идентификатор : 3
Формат : DTS
Формат/Информация : Digital Theater Systems
Идентификатор кодека : A_DTS
Продолжительность : 1 ч. 29 м.
Вид битрейта : Постоянный
Битрейт : 1510 Кбит/сек
Каналы : 6 каналов
Расположение каналов : Front: L C R, Side: L R, LFE
Частота : 48,0 КГц
Битовая глубина : 24 бит
Метод сжатия : С потерями
Размер потока : 966 Мбайт (25%)
Язык : German
Default : Нет
Forced : Нет
Текст
Идентификатор : 4
Формат : UTF-8
Идентификатор кодека : S_TEXT/UTF8
Идентификатор кодека/Информация : UTF-8 Plain Text
Язык : Russian
Default : Нет
Forced : Нет
Меню
00:00:00.000 : de:00:00:00.000
00:02:25.354 : de:00:02:25.354
00:05:56.982 : de:00:05:56.982
00:10:25.458 : de:00:10:25.458
00:16:18.477 : de:00:16:18.477
00:21:17.735 : de:00:21:17.735
00:28:15.611 : de:00:28:15.611
00:35:30.128 : de:00:35:30.128
00:40:29.761 : de:00:40:29.761
00:46:21.654 : de:00:46:21.654
00:53:00.219 : de:00:53:00.219
00:59:01.329 : de:00:59:01.329
01:08:24.350 : de:01:08:24.350
01:13:31.616 : de:01:13:31.616
01:19:18.420 : de:01:19:18.420
01:24:25.727 : de:01:24:25.727
[th]http://pics.kz/i2/ca/f1/caf18ef1815a2f9a3cc93d2e1b133a72.png[/th] [th]http://pics.kz/i3/f1/ef/f1ef0e195c85dee3e7763358d4640424.png[/th] [th]http://pics.kz/i2/30/98/3098581091b68d1497383757e6e72c21.png[/th]

[Цитировать]



Показать сообщения:    

Текущее время: 09-Дек 08:52

Часовой пояс: UTC + 3


Вы не можете начинать темы
Вы не можете отвечать на сообщения
Вы не можете редактировать свои сообщения
Вы не можете удалять свои сообщения
Вы не можете голосовать в опросах
Вы не можете прикреплять файлы к сообщениям
Вы не можете скачивать файлы

!ВНИМАНИЕ!
Сайт не предоставляет электронные версии произведений, а занимается лишь коллекционированием и каталогизацией ссылок, присылаемых и публикуемых на форуме нашими читателями. Если вы являетесь правообладателем какого-либо представленного материала и не желаете, чтобы ссылка на него находилась в нашем каталоге, свяжитесь с нами, и мы незамедлительно удалим ее. Файлы для обмена на трекере предоставлены пользователями сайта, и администрация не несет ответственности за их содержание. Просьба не заливать файлы, защищенные авторскими правами, а также файлы нелегального содержания!