[ Сегодня идет свободное скачивание без начисления Download ]


Статистика раздачи
Нет
 
   
 
Top  
 
 
Дэдпул / Deadpool «Стань свидетелем, как он кончит»
Год выпуска: 2016
Страна: США, Канада
Производство: 20th Century Fox Film Corporation
Жанр: фантастика, боевик, комедия, приключения
Режиссёр: Тим Миллер
В ролях: Райан Рейнольдс, Морена Баккарин, Эд Скрейн, ТиДжей Миллер, Джина Карано, Брианна Хилдебранд, Стефан Капичич, Лесли Уггэмс, Джед Риис, Каран Сони, Майкл Беняер, Стайл Дэйн, Кайл Кэсси, Тэйлор Хиксон, Айзи, Наика Туссэн, Рендал Ридер, Айзек С. Синглтон мл., Джастин Шиппелт, Донна Ямамото
Перевод: Профессиональный (полное дублирование) [iTunes]
Субтитры: русские (форсированные, полные), украинские (форсированные, полные), английские (полные, SDH): вшитые, отключаемые (UTF-8)
Описание: У бывшего спецназовца Уэйда Уилсона было все, о чем можно только мечтать: перспективная высокооплачиваемая работа, отдельная жилплощадь и неземной красоты девушка, работающая в местном стриптиз-клубе. Но однажды случается непоправимое - у молодого человека диагностируют рак. В результате несчастного случая при прохождении курса вакуумной химиотерапии его внешность приобретает очертания кошмаров Фредди Крюгера, а скорость генерирования шуток черного юмора взлетает в стратосферу. Сможет ли его девушка пережить крутую смену имиджа любимого человека? Сможет ли он сам удержать свою нестабильную психику на плаву и не скатиться по наклонной?
сэмпл
Премьера (мир): 21 января 2016, ...
Премьера (РФ): 11 февраля 2016, «Двадцатый Век Фокс СНГ»
Качество: BDRip-AVC
Продолжительность: 01:48:41
Формат: MKV
Видео кодек: AVC
Аудио кодек: AC3
Видео: 960x402 (2.40:1), 23.976 fps, MPEG-4 AVC ~1544 kbps avg, 0.167 bit/pixel
Аудио | Russian: AC3, 48 kHz, 6 ch, ~384.00 kbps avg |Дубляж, iTunes Russia|

MediaInfo

/Deadpool.2016.BDRip-AVC.Dub.1.45Gb.stalkerok.new-team.mkv
Format : Matroska
Format version : Version 4 / Version 2
File size : 1.46 GiB
Duration : 1h 48mn
Overall bit rate : 1 930 Kbps
Movie name : Deadpool (2016) (New-Team) (Rip by Stalker oK)
Encoded date : UTC 2016-04-27 13:34:33
Writing application : mkvmerge v8.6.1 ('Flying') 64bit
Writing library : libebml v1.3.3 + libmatroska v1.4.4
DURATION : 01:47:39.317000000
NUMBER_OF_FRAMES : 1853
NUMBER_OF_BYTES : 51669
_STATISTICS_WRITING_APP : mkvmerge v8.6.1 ('Flying') 64bit
_STATISTICS_WRITING_DATE_UTC : 2016-04-27 13:34:33
_STATISTICS_TAGS : BPS DURATION NUMBER_OF_FRAMES NUMBER_OF_BYTES
Video
ID : 1
Format : AVC
Format/Info : Advanced Video Codec
Format profile : High@L4.1
Format settings, CABAC : Yes
Format settings, ReFrames : 14 frames
Codec ID : V_MPEG4/ISO/AVC
Duration : 1h 48mn
Bit rate : 1 544 Kbps
Width : 960 pixels
Height : 402 pixels
Display aspect ratio : 2.40:1
Frame rate mode : Constant
Frame rate : 23.976 fps
Color space : YUV
Chroma subsampling : 4:2:0
Bit depth : 8 bits
Scan type : Progressive
Bits/(Pixel*Frame) : 0.167
Stream size : 1.14 GiB (78%)
Title : Deadpool (2016) (New-Team) (Rip by Stalker oK)
Writing library : x264 core 148 r2665kMod a01e339
Encoding settings : cabac=1 / ref=14 / deblock=1:-3:-2 / analyse=0x3:0x133 / me=umh / subme=11 / psy=1 / fade_compensate=0.00 / psy_rd=1.00:0.05 / mixed_ref=1 / me_range=48 / chroma_me=1 / trellis=2 / 8x8dct=1 / cqm=0 / deadzone=21,11 / fast_pskip=0 / chroma_qp_offset=-3 / threads=12 / lookahead_threads=3 / sliced_threads=0 / nr=0 / decimate=0 / interlaced=0 / bluray_compat=0 / constrained_intra=0 / fgo=0 / bframes=15 / b_pyramid=2 / b_adapt=2 / b_bias=0 / direct=3 / weightb=1 / open_gop=0 / weightp=2 / keyint=240 / keyint_min=23 / scenecut=40 / intra_refresh=0 / rc_lookahead=60 / rc=2pass / mbtree=0 / bitrate=1544 / ratetol=1.0 / qcomp=0.70 / qpmin=0 / qpmax=69 / qpstep=4 / cplxblur=20.0 / qblur=0.5 / vbv_maxrate=50000 / vbv_bufsize=62500 / nal_hrd=none / filler=0 / ip_ratio=1.40 / pb_ratio=1.30 / aq=3:0.90
Default : Yes
Forced : No
DURATION : 01:48:09.692000000
NUMBER_OF_FRAMES : 155597
NUMBER_OF_BYTES : 1252290106
_STATISTICS_WRITING_APP : mkvmerge v8.6.1 ('Flying') 64bit
_STATISTICS_WRITING_DATE_UTC : 2016-04-27 13:34:33
_STATISTICS_TAGS : BPS DURATION NUMBER_OF_FRAMES NUMBER_OF_BYTES
Audio
ID : 2
Format : AC-3
Format/Info : Audio Coding 3
Mode extension : CM (complete main)
Format settings, Endianness : Big
Codec ID : A_AC3
Duration : 1h 48mn
Bit rate mode : Constant
Bit rate : 384 Kbps
Channel(s) : 6 channels
Channel positions : Front: L C R, Side: L R, LFE
Sampling rate : 48.0 KHz
Bit depth : 16 bits
Compression mode : Lossy
Stream size : 297 MiB (20%)
Language : Russian
Default : Yes
Forced : No
Text #1
ID : 3
Format : UTF-8
Codec ID : S_TEXT/UTF8
Codec ID/Info : UTF-8 Plain Text
Title : Forced, iTunes
Language : Russian
Default : Yes
Forced : No
Text #2
ID : 4
Format : UTF-8
Codec ID : S_TEXT/UTF8
Codec ID/Info : UTF-8 Plain Text
Title : iTunes
Language : Russian
Default : No
Forced : No
Text #3
ID : 5
Format : UTF-8
Codec ID : S_TEXT/UTF8
Codec ID/Info : UTF-8 Plain Text
Title : Forced, iTunes
Language : Ukrainian
Default : No
Forced : No
Text #4
ID : 6
Format : UTF-8
Codec ID : S_TEXT/UTF8
Codec ID/Info : UTF-8 Plain Text
Title : iTunes
Language : Ukrainian
Default : No
Forced : No
Text #5
ID : 7
Format : UTF-8
Codec ID : S_TEXT/UTF8
Codec ID/Info : UTF-8 Plain Text
Title : Full
Language : English
Default : No
Forced : No
Text #6
ID : 8
Format : UTF-8
Codec ID : S_TEXT/UTF8
Codec ID/Info : UTF-8 Plain Text
Title : SDH
Language : English
Default : No
Forced : No
Menu
00:00:00.000 : en:Chapter 1
00:03:04.725 : en:Chapter 2
00:05:53.019 : en:Chapter 3
00:09:30.820 : en:Chapter 4
00:13:19.089 : en:Chapter 5
00:16:48.716 : en:Chapter 6
00:20:12.544 : en:Chapter 7
00:22:06.407 : en:Chapter 8
00:27:09.626 : en:Chapter 9
00:31:58.958 : en:Chapter 10
00:36:51.708 : en:Chapter 11
00:41:06.172 : en:Chapter 12
00:44:45.766 : en:Chapter 13
00:46:56.605 : en:Chapter 14
00:50:10.965 : en:Chapter 15
00:53:18.027 : en:Chapter 16
00:55:33.038 : en:Chapter 17
00:59:07.751 : en:Chapter 18
01:03:05.239 : en:Chapter 19
01:07:06.438 : en:Chapter 20
01:09:15.568 : en:Chapter 21
01:12:29.720 : en:Chapter 22
01:16:46.393 : en:Chapter 23
01:20:43.712 : en:Chapter 24
01:25:53.398 : en:Chapter 25
01:31:03.791 : en:Chapter 26
01:34:46.970 : en:Chapter 27
01:39:52.735 : en:Chapter 28

Скриншоты

[Цитировать]



Показать сообщения:    

Текущее время: 09-Дек 12:46

Часовой пояс: UTC + 3


Вы не можете начинать темы
Вы не можете отвечать на сообщения
Вы не можете редактировать свои сообщения
Вы не можете удалять свои сообщения
Вы не можете голосовать в опросах
Вы не можете прикреплять файлы к сообщениям
Вы не можете скачивать файлы

!ВНИМАНИЕ!
Сайт не предоставляет электронные версии произведений, а занимается лишь коллекционированием и каталогизацией ссылок, присылаемых и публикуемых на форуме нашими читателями. Если вы являетесь правообладателем какого-либо представленного материала и не желаете, чтобы ссылка на него находилась в нашем каталоге, свяжитесь с нами, и мы незамедлительно удалим ее. Файлы для обмена на трекере предоставлены пользователями сайта, и администрация не несет ответственности за их содержание. Просьба не заливать файлы, защищенные авторскими правами, а также файлы нелегального содержания!