[ Сегодня идет свободное скачивание без начисления Download ]


Статистика раздачи
Нет
 
   
 
Top  
 
 
- Помню – не помню! (2016) WEB-DL [H.264/720p-LQ] - Производство: Россия / Кинофирма
Жанр: Комедия
Режиссер: Василий Ровенский
Продюсер: Василий Ровенский, Антонина Руже
Актеры: Наталия Медведева, Полина Максимова, Константин Крюков, Людмила Артемьева, Анна Ардова, Александр Демидов, Сергей Бадюк, Вадим Демчог, Анна Хилькевич, Дмитрий Хрусталев
Описание:
Живет себе на свете скромная девушка Алена, работает в библиотеке и мечтает сыграть Джульетту в самодеятельном театре. Она и представить себе не может, что буквально завтра ее жизнь кардинально изменится. Столкнувшись на улице с шикарной блондинкой, она теряет сознание и… приходит в себя в больнице… в чужом теле.

Возраст: 12+ (зрителям, достигшим 12 лет)
Рейтинг MPAA: PG-13 (детям до 13 лет просмотр нежелателен)
Дата мировой премьеры: 8 апреля 2016
Дата российской премьеры: 31 марта 2016, «Наше Кино»
Продолжительность: 01:15:30
Качество видео: WEB-DL Сэмпл
Перевод: Не требуется (русский) iTunes
Вид субтитров: Отсутствуют
Видео: AVC, 1280x536 (2.35:1), 24.000 fps, 3 965 Kbps (0.241 bit/pixel)
Аудио: AC-3, 48.0 KHz, 6 ch, 384 Kbps, CBR

Mediainfo:

Общее
Уникальный идентификатор                 : 184293841560932805080696390710923615827 (0x8AA5B3EAE2FB0716A1D64DDAB5DBDE53)
Полное имя                               : D:\[1]\Помню – не помню!\Помню – не помню! (2016)_720.mkv
Формат                                   : Matroska
Версия формата                           : Version 4 / Version 2
Размер файла                             : 2,34 Гбайт
Продолжительность                        : 1 ч. 15 м.
Общий поток                              : 4437 Кбит/сек
Дата кодирования                         : UTC 2016-04-27 19:05:02
Программа кодирования                    : mkvmerge v8.3.0 ('Over the Horizon') 64bit
Библиотека кодирования                   : libebml v1.3.1 + libmatroska v1.4.2
DURATION                                 : 01:15:30.080000000
NUMBER_OF_FRAMES                         : 141565
NUMBER_OF_BYTES                          : 217443840
_STATISTICS_WRITING_APP                  : mkvmerge v8.3.0 ('Over the Horizon') 64bit
_STATISTICS_WRITING_DATE_UTC             : 2016-04-27 19:05:02
_STATISTICS_TAGS                         : BPS DURATION NUMBER_OF_FRAMES NUMBER_OF_BYTES
Видео
Идентификатор                            : 1
Формат                                   : AVC
Формат/Информация                        : Advanced Video Codec
Профиль формата                          : [url=mailto:Main@L3.1]Main@L3.1[/url]
Параметр CABAC формата                   : Нет
Параметр ReFrames формата                : 2 кадра
Идентификатор кодека                     : V_MPEG4/ISO/AVC
Продолжительность                        : 1 ч. 15 м.
Битрейт                                  : 3965 Кбит/сек
Ширина                                   : 1280 пикселей
Высота                                   : 536 пикселей
Соотношение сторон                       : 2,40:1
Режим частоты кадров                     : Постоянный
Частота кадров                           : 24,000 кадра/сек
Цветовое пространство                    : YUV
Субдискретизация насыщенности            : 4:2:0
Битовая глубина                          : 8 бит
Тип развёртки                            : Прогрессивная
Бит/(Пиксели*Кадры)                      : 0.241
Размер потока                            : 2,09 Гбайт (89%)
Язык                                     : English
Default                                  : Да
Forced                                   : Нет
Цветовой диапазон                        : Limited
Основные цвета                           : BT.709
Характеристики трансфера                 : BT.709
Коэффициенты матрицы                     : BT.709
Аудио
Идентификатор                            : 2
Формат                                   : AC-3
Формат/Информация                        : Audio Coding 3
Расширение режима                        : CM (complete main)
Параметр Endianness формата              : Big
Идентификатор кодека                     : A_AC3
Продолжительность                        : 1 ч. 15 м.
Вид битрейта                             : Постоянный
Битрейт                                  : 384 Кбит/сек
Каналы                                   : 6 каналов
Расположение каналов                     : Front: L C R, Side: L R, LFE
Частота                                  : 48,0 КГц
Битовая глубина                          : 16 бит
Метод сжатия                             : С потерями
Размер потока                            : 207 Мбайт (9%)
Язык                                     : Russian
Default                                  : Да
Forced                                   : Нет
Меню
00:00:00.000                             : en:Глава 1
00:05:14.333                             : en:Глава 2
00:11:59.749                             : en:Глава 3
00:18:11.499                             : en:Глава 4
00:23:58.582                             : en:Глава 5
00:29:02.707                             : en:Глава 6
00:34:57.665                             : en:Глава 7
00:40:04.623                             : en:Глава 8
00:45:29.623                             : en:Глава 9
00:51:28.456                             : en:Глава 10
00:56:31.831                             : en:Глава 11
01:03:10.664                             : en:Глава 12
Скриншоты:

[Цитировать]



Показать сообщения:    

Текущее время: 10-Дек 05:58

Часовой пояс: UTC + 3


Вы не можете начинать темы
Вы не можете отвечать на сообщения
Вы не можете редактировать свои сообщения
Вы не можете удалять свои сообщения
Вы не можете голосовать в опросах
Вы не можете прикреплять файлы к сообщениям
Вы не можете скачивать файлы

!ВНИМАНИЕ!
Сайт не предоставляет электронные версии произведений, а занимается лишь коллекционированием и каталогизацией ссылок, присылаемых и публикуемых на форуме нашими читателями. Если вы являетесь правообладателем какого-либо представленного материала и не желаете, чтобы ссылка на него находилась в нашем каталоге, свяжитесь с нами, и мы незамедлительно удалим ее. Файлы для обмена на трекере предоставлены пользователями сайта, и администрация не несет ответственности за их содержание. Просьба не заливать файлы, защищенные авторскими правами, а также файлы нелегального содержания!