[ Сегодня идет свободное скачивание без начисления Download ]


Статистика раздачи
Скачал: [ 4 ]
 
   
 
Top  
 
 
- ITVDN | HTML5 Web Components (2016) PCRec 1080p- Автор (режиссер): Дмитрий Охрименко
Производство: ITVDN
Жанр: Программирование
Описание:
HTML5 Web Components - это видео курс, который будет полезен любому разработчику. Мир разработки настольных приложений потерпел много изменений. Технологии, разработанные для создания пользовательских интерфейсов для desktop приложений хорошо развиты и многие годы, используются разработчиками. Но в веб ориентированных интерфейсах на сегодняшний день еще не сформировался единый набор правил для создания повторно использующихся компонентов. Разработчики часто сталкиваются с такими проблемами как отсутствие единых правил использования шаблонов, слабая семантика, конфликты стилей, сложности подключения новых библиотек к веб приложению. Решить все перечисленные проблемы позволяет набор стандартов HTML5, которые объединены под названием Web Components.
Продолжительность: 02:11:21
Качество видео: PCRec
Видео: AVC/H.264, 1920x1080, ~645 Kbps
Аудио: AAC, 2 ch, 235 Kbps

Содержание

- Введение в Web Components
- Shadow DOM
- Псевдо классы и использование импортов

Mediainfo:

General
Complete name               : E:\Video\Learning\Frontend\HTML & CSS\HTML5 Web Components\Урок 1. Введение в Web Components.mp4
Format                      : MPEG-4
Format profile              : Base Media / Version 2
Codec ID                    : mp42 (mp42/mp41/isom/avc1)
File size                   : 198 MiB
Duration                    : 42mn 51s
Overall bit rate mode       : Variable
Overall bit rate            : 645 Kbps
Encoded date                : UTC 2016-04-22 10:10:27
Tagged date                 : UTC 2016-04-22 10:10:27
Video
ID                          : 1
Format                      : AVC
Format/Info                 : Advanced Video Codec
Format profile              : High@L4
Format settings, CABAC      : Yes
Format settings, ReFrames   : 4 frames
Codec ID                    : avc1
Codec ID/Info               : Advanced Video Coding
Duration                    : 42mn 51s
Bit rate                    : 405 Kbps
Width                       : 1 920 pixels
Height                      : 1 080 pixels
Display aspect ratio        : 16:9
Frame rate mode             : Constant
Frame rate                  : 30.000 fps
Color space                 : YUV
Chroma subsampling          : 4:2:0
Bit depth                   : 8 bits
Scan type                   : Progressive
Bits/(Pixel*Frame)          : 0.007
Stream size                 : 124 MiB (63%)
Writing library             : x264 core 148 r11 a01e339
Encoding settings           : cabac=1 / ref=4 / deblock=1:0:0 / analyse=0x3:0x113 / me=umh / subme=8 / psy=1 / psy_rd=1.00:0.00 / mixed_ref=1 / me_range=16 / chroma_me=1 / trellis=1 / 8x8dct=1 / cqm=0 / deadzone=21,11 / fast_pskip=1 / chroma_qp_offset=-2 / threads=34 / lookahead_threads=5 / sliced_threads=0 / nr=0 / decimate=1 / interlaced=0 / bluray_compat=0 / stitchable=1 / constrained_intra=0 / bframes=3 / b_pyramid=2 / b_adapt=2 / b_bias=0 / direct=3 / weightb=1 / open_gop=0 / weightp=2 / keyint=infinite / keyint_min=30 / scenecut=40 / intra_refresh=0 / rc_lookahead=50 / rc=crf / mbtree=1 / crf=20.0 / qcomp=0.60 / qpmin=5 / qpmax=69 / qpstep=4 / vbv_maxrate=4950 / vbv_bufsize=13500 / crf_max=0.0 / nal_hrd=none / filler=0 / ip_ratio=1.40 / aq=1:1.00
Encoded date                : UTC 2016-04-22 10:10:27
Tagged date                 : UTC 2016-04-22 10:10:27
Color range                 : Limited
Color primaries             : BT.709
Transfer characteristics    : BT.709
Matrix coefficients         : BT.709
Audio
ID                          : 2
Format                      : AAC
Format/Info                 : Advanced Audio Codec
Format profile              : LC
Codec ID                    : 40
Duration                    : 42mn 51s
Bit rate mode               : Variable
Bit rate                    : 235 Kbps
Channel(s)                  : 2 channels
Channel positions           : Front: L R
Sampling rate               : 48.0 KHz
Frame rate                  : 46.875 fps (1024 spf)
Compression mode            : Lossy
Stream size                 : 72.1 MiB (36%)
Encoded date                : UTC 2016-04-22 10:10:27
Tagged date                 : UTC 2016-04-22 10:10:27
Скриншоты:

[Цитировать]



Показать сообщения:    

Текущее время: 11-Дек 05:14

Часовой пояс: UTC + 3


Вы не можете начинать темы
Вы не можете отвечать на сообщения
Вы не можете редактировать свои сообщения
Вы не можете удалять свои сообщения
Вы не можете голосовать в опросах
Вы не можете прикреплять файлы к сообщениям
Вы не можете скачивать файлы

!ВНИМАНИЕ!
Сайт не предоставляет электронные версии произведений, а занимается лишь коллекционированием и каталогизацией ссылок, присылаемых и публикуемых на форуме нашими читателями. Если вы являетесь правообладателем какого-либо представленного материала и не желаете, чтобы ссылка на него находилась в нашем каталоге, свяжитесь с нами, и мы незамедлительно удалим ее. Файлы для обмена на трекере предоставлены пользователями сайта, и администрация не несет ответственности за их содержание. Просьба не заливать файлы, защищенные авторскими правами, а также файлы нелегального содержания!