[ Today is free to download without increasing Download ]

DL-List and Torrent activity
Тэд Джонс и Затерянный город 3D / Las aventuras de Tadeo Jones«По следам Индианы Джонса»
Год выпуска: 2012
Страна: Испания
Производство: Lightbox Entertainment, Telecinco Cinema, Telef?nica Producciones
Жанр: Мультфильм, приключения, семейный
Режиссер: Энрике Гато
В ролях: Оскар Барберан, Меритксель Ане, Карлес Канут, Фиона Глэскотт, Адам Джеймс, Мишель Хеннер, Мигель Анхель Дженнер, Энрикета Линарес, Мак МакДональд, Брюс Маккиннон
Перевод: Дублированный [Чистый звук]
Субтитры: Отсутствуют
Описание: Тэд — обычный чикагский строитель, страстно мечтающий о невероятных открытиях и опасных приключениях. Однажды его по ошибке принимают за известного археолога и отправляют в Перу на поиски сокровищ инков. Радости Тэда не было предела, но, похоже, она оказалась преждевременной…
[kp]587288[/kp] [imdb]tt1764625[/imdb]
Качество: HDRip | Сэмпл
Продолжительность: 01:32:00
Формат: AVI
Видео кодек: XviD
Аудио кодек: MP3
Видео: 624х352 (4:2:0), 24.00 fps, XviD build 50 ~964 kbps avg, 0.17 bit/pixel
Аудио: 44.100 kHz, MPEG Layer 3, 2 ch, ~128.00 kbps avg
Премьера (мир): 4 июня 2012
Премьера (РФ): 6 декабря 2012, «Каравелла DDC»

Media Info

Complete name                    : C:\Users\Polzovatel\Videos\Ted.djons.i.zaterjannyj.gorod.2012.D.HDRip700.avi
Format                           : AVI
Format/Info                      : Audio Video Interleave
File size                        : 697 MiB
Duration                         : 1h 32mn
Overall bit rate                 : 1 059 Kbps
Writing application              : VirtualDubMod (build 2540/release)
Writing library                  : VirtualDubMod build 2540/release
ID                               : 0
Format                           : MPEG-4 Visual
Format profile                   : Advanced Simple@L5
Format settings, BVOP            : 2
Format settings, QPel            : No
Format settings, GMC             : No warppoints
Format settings, Matrix          : Custom
Codec ID                         : XVID
Codec ID/Hint                    : XviD
Duration                         : 1h 32mn
Bit rate                         : 921 Kbps
Width                            : 624 pixels
Height                           : 352 pixels
Display aspect ratio             : 16:9
Frame rate                       : 24.000 fps
Color space                      : YUV
Chroma subsampling               : 4:2:0
Bit depth                        : 8 bits
Scan type                        : Progressive
Compression mode                 : Lossy
Bits/(Pixel*Frame)               : 0.175
Stream size                      : 606 MiB (87%)
Writing library                  : XviD 1.2.1 (UTC 2008-12-04)
ID                               : 1
Format                           : MPEG Audio
Format version                   : Version 1
Format profile                   : Layer 3
Mode                             : Joint stereo
Mode extension                   : MS Stereo
Codec ID                         : 55
Codec ID/Hint                    : MP3
Duration                         : 1h 31mn
Bit rate mode                    : Constant
Bit rate                         : 128 Kbps
Channel(s)                       : 2 channels
Sampling rate                    : 44.1 KHz
Compression mode                 : Lossy
Stream size                      : 84.2 MiB (12%)
Alignment                        : Split accross interleaves
Interleave, duration             : 42 ms (1.00 video frame)
Interleave, preload duration     : 500 ms

Last edited by DarkHeart on 2013-01-05 20:36; edited 1 time in total


Если что то дораздам утром!


Топик был перенесен из форума Новинки кинопроката в форум Зарубежные мультфильмы

Display posts:    

Current time is: 21-Oct 17:53

All times are UTC + 3

You cannot post new topics in this forum
You cannot reply to topics in this forum
You cannot edit your posts in this forum
You cannot delete your posts in this forum
You cannot vote in polls in this forum
You cannot attach files in this forum
You cannot download files in this forum

The site does not give electronic versions of products, and is engaged only in a collecting and cataloguing of the references sent and published at a forum by our readers. If you are the legal owner of any submitted material and do not wish that the reference to it was in our catalogue, contact us and we shall immediately remove her. Files for an exchange on tracker are given by users of a site, and the administration does not bear the responsibility for their maintenance. The request to not fill in the files protected by copyrights, and also files of the illegal maintenance!