[ Today is free to download without increasing Download ]

DL-List and Torrent activity
Помню – не помню! «Почувствуй себя в чужом теле!» Год выпуска: 2016
Страна: Россия
Производство: Кинофирма
Жанр: комедия
Режиссёр: Василий Ровенский
В ролях: Наталия Медведева, Полина Максимова, Константин Крюков, Людмила Артемьева, Анна Ардова, Александр Демидов, Сергей Бадюк, Вадим Демчог, Анна Хилькевич, Дмитрий Хрусталёв
Перевод: Не требуется [iTunes]
Субтитры: Нет
Описание: Живет себе на свете скромная девушка Алена, работает в библиотеке и мечтает сыграть Джульетту в самодеятельном театре. Она и представить себе не может, что буквально завтра ее жизнь кардинально изменится. Столкнувшись на улице с шикарной блондинкой, она теряет сознание и… приходит в себя в больнице… в чужом теле.
Премьера (мир): 8 апреля 2016
Премьера (РФ): 31 марта 2016, «Наше Кино»
Качество: WEB-DLRip
Продолжительность: 01:15:30
Формат: AVI
Видео кодек: XviD
Аудио кодек: AC3
Видео: 720x304 (2.35:1), 24.000 fps, XviD build 50 ~1160 kbps avg, 0.221 bit/pixel
Аудио : 48 kHz, AC3 Dolby Digital, 2 ch, ~128.00 kbps avg

Отчет MI

Format : AVI
Format/Info : Audio Video Interleave
File size : 701 MiB
Duration : 1h 15mn
Overall bit rate : 1 298 Kbps
Writing application : VirtualDubMod | www.virtualdub-fr.org || (build 2550/release)
Writing library : VirtualDubMod build 2550/release
ID : 0
Format : MPEG-4 Visual
Format profile : Advanced Simple@L5
Format settings, BVOP : 2
Format settings, QPel : No
Format settings, GMC : No warppoints
Format settings, Matrix : Default (MPEG)
Codec ID : XVID
Codec ID/Hint : XviD
Duration : 1h 15mn
Bit rate : 1 160 Kbps
Width : 720 pixels
Height : 304 pixels
Display aspect ratio : 2.35:1
Frame rate : 24.000 fps
Color space : YUV
Chroma subsampling : 4:2:0
Bit depth : 8 bits
Scan type : Progressive
Compression mode : Lossy
Bits/(Pixel*Frame) : 0.221
Stream size : 627 MiB (89%)
Writing library : XviD 1.2.1 (UTC 2008-12-04)
ID : 1
Format : AC-3
Format/Info : Audio Coding 3
Mode extension : CM (complete main)
Format settings, Endianness : Big
Codec ID : 2000
Duration : 1h 15mn
Bit rate mode : Constant
Bit rate : 128 Kbps
Channel(s) : 2 channels
Channel positions : Front: L R
Sampling rate : 48.0 KHz
Bit depth : 16 bits
Compression mode : Lossy
Stream size : 69.1 MiB (10%)
Alignment : Split accross interleaves
Interleave, duration : 42 ms (1.00 video frame)
Interleave, preload duration : 500 ms



Display posts:    

Current time is: 26-Oct 07:07

All times are UTC + 3

You cannot post new topics in this forum
You cannot reply to topics in this forum
You cannot edit your posts in this forum
You cannot delete your posts in this forum
You cannot vote in polls in this forum
You cannot attach files in this forum
You cannot download files in this forum

The site does not give electronic versions of products, and is engaged only in a collecting and cataloguing of the references sent and published at a forum by our readers. If you are the legal owner of any submitted material and do not wish that the reference to it was in our catalogue, contact us and we shall immediately remove her. Files for an exchange on tracker are given by users of a site, and the administration does not bear the responsibility for their maintenance. The request to not fill in the files protected by copyrights, and also files of the illegal maintenance!