[ Сегодня идет свободное скачивание без начисления Download ]


Статистика раздачи
Нет
 
   
 
Top  
 
 
Помню – не помню! «Почувствуй себя в чужом теле!» Год выпуска: 2016
Страна: Россия
Производство: Кинофирма
Жанр: комедия
Режиссёр: Василий Ровенский
В ролях: Наталия Медведева, Полина Максимова, Константин Крюков, Людмила Артемьева, Анна Ардова, Александр Демидов, Сергей Бадюк, Вадим Демчог, Анна Хилькевич, Дмитрий Хрусталёв
Перевод: Не требуется [iTunes]
Субтитры: Нет
Описание: Живет себе на свете скромная девушка Алена, работает в библиотеке и мечтает сыграть Джульетту в самодеятельном театре. Она и представить себе не может, что буквально завтра ее жизнь кардинально изменится. Столкнувшись на улице с шикарной блондинкой, она теряет сознание и… приходит в себя в больнице… в чужом теле.
[url=http://sendfile.su/1228970]сэмпл[url]
Премьера (мир): 8 апреля 2016
Премьера (РФ): 31 марта 2016, «Наше Кино»
Качество: WEB-DLRip
Продолжительность: 01:15:30
Формат: AVI
Видео кодек: XviD
Аудио кодек: AC3
Видео: 720x304 (2.35:1), 24.000 fps, XviD build 50 ~1160 kbps avg, 0.221 bit/pixel
Аудио : 48 kHz, AC3 Dolby Digital, 2 ch, ~128.00 kbps avg

Отчет MI

/P0mH1y.He.P0mH1y.2016.O.WEB-DLRip.700MB.avi
Format : AVI
Format/Info : Audio Video Interleave
File size : 701 MiB
Duration : 1h 15mn
Overall bit rate : 1 298 Kbps
Writing application : VirtualDubMod 1.5.10.3 | www.virtualdub-fr.org || (build 2550/release)
Writing library : VirtualDubMod build 2550/release
Video
ID : 0
Format : MPEG-4 Visual
Format profile : Advanced Simple@L5
Format settings, BVOP : 2
Format settings, QPel : No
Format settings, GMC : No warppoints
Format settings, Matrix : Default (MPEG)
Codec ID : XVID
Codec ID/Hint : XviD
Duration : 1h 15mn
Bit rate : 1 160 Kbps
Width : 720 pixels
Height : 304 pixels
Display aspect ratio : 2.35:1
Frame rate : 24.000 fps
Color space : YUV
Chroma subsampling : 4:2:0
Bit depth : 8 bits
Scan type : Progressive
Compression mode : Lossy
Bits/(Pixel*Frame) : 0.221
Stream size : 627 MiB (89%)
Writing library : XviD 1.2.1 (UTC 2008-12-04)
Audio
ID : 1
Format : AC-3
Format/Info : Audio Coding 3
Mode extension : CM (complete main)
Format settings, Endianness : Big
Codec ID : 2000
Duration : 1h 15mn
Bit rate mode : Constant
Bit rate : 128 Kbps
Channel(s) : 2 channels
Channel positions : Front: L R
Sampling rate : 48.0 KHz
Bit depth : 16 bits
Compression mode : Lossy
Stream size : 69.1 MiB (10%)
Alignment : Split accross interleaves
Interleave, duration : 42 ms (1.00 video frame)
Interleave, preload duration : 500 ms

Скриншоты

[Цитировать]



Показать сообщения:    

Текущее время: 09-Дек 14:42

Часовой пояс: UTC + 3


Вы не можете начинать темы
Вы не можете отвечать на сообщения
Вы не можете редактировать свои сообщения
Вы не можете удалять свои сообщения
Вы не можете голосовать в опросах
Вы не можете прикреплять файлы к сообщениям
Вы не можете скачивать файлы

!ВНИМАНИЕ!
Сайт не предоставляет электронные версии произведений, а занимается лишь коллекционированием и каталогизацией ссылок, присылаемых и публикуемых на форуме нашими читателями. Если вы являетесь правообладателем какого-либо представленного материала и не желаете, чтобы ссылка на него находилась в нашем каталоге, свяжитесь с нами, и мы незамедлительно удалим ее. Файлы для обмена на трекере предоставлены пользователями сайта, и администрация не несет ответственности за их содержание. Просьба не заливать файлы, защищенные авторскими правами, а также файлы нелегального содержания!