[ Сегодня идет свободное скачивание без начисления Download ]


Статистика раздачи
Нет
 
   
 
Top  
 
 
Самый пьяный округ в мире / Lawless«Преступники станут легендой»
Год выпуска: 2012
Страна: США
Производство: Annapurna Pictures, Benaroya Pictures, Blum Hanson Allen Films, FilmNation Entertainment, Pie Films Inc., Red Wagon Productions, Yucaipa Films
Жанр: драма, криминал
Режиссер: Джон Хиллкоут
В ролях: Шайа ЛаБаф, Том Харди, Гари Олдман, Джессика Честейн, Гай Пирс, Джейсон Кларк, Миа Васиковска, Дэйн ДеХаан, Крис МакГарри, Тим Толин
Перевод: Авторский (одноголосый закадровый) - Ю.Сербин, Авторский (одноголосый закадровый) - А.Дасевич, Авторский (одноголосый закадровый) - Zamez
Субтитры: Русские, Английские
Описание: Действие в картине разворачивается на американском Юге во времена сухого закона и Великой Депрессии. В центре сюжета — семья Бондурант, три брата, Джек, Форрест и Говард, которые занимаются запрещенным в то время бизнесом, бутлегерством.
Оптимистично настроенный Джек, самый молодой из братьев, надеется с помощью бутлегерства заработать денег и произвести впечатление на свою девушку Берту. В это же время Форрест, напротив, настроен очень мрачно, он молчалив и подозрителен, а Говарду к тому же часто приходится иметь дело с врагами незаконного семейного бизнеса, в лице которых выступают коррумпированные местные полицейские.

[kp]461972[/kp] [imdb]tt1212450[/imdb]
Качество: BDRip-AVC
Продолжительность: 01:55:45 час.
Формат: MKV
Видео кодек: AVC
Аудио кодек: AC3
Видео: 1200x500 (2.40:1), 23.976 fps, x264 ~3 579 kbps avg 0.249 bit/pixel
Аудио: 48 kHz, АС3, 3/2 (L,C,R,l,r) + LFE ch, ~448.00 kbps avg - (Авторский (одноголосый закадровый) - Ю.Сербин)
Аудио #2: 48 kHz, АС3, 3/2 (L,C,R,l,r) + LFE ch, ~448.00 kbps avg - (Авторский (одноголосый закадровый) - А.Дасевич)
Аудио #3: 48 kHz, АС3, 3/2 (L,C,R,l,r) + LFE ch, ~448.00 kbps avg - (Авторский (одноголосый закадровый) - Zamez)
Аудио #4: 48 kHz, АС3, 3/2 (L,C,R,l,r) + LFE ch, ~448.00 kbps avg - (Оригинал)
Премьера (мир): 19 мая 2012
Премьера (РФ): 6 декабря 2012, «West»

Media Info

Общее
Уникальный идентификатор         : 241145917735977969659641133867295818522 (0xB56B03AF49F4470DA328A2DD58AFC31A)
Полное имя                       : \Lawless.2012.BDRip-AVC.mkv
Формат                           : Matroska
Версия формата                   : Version 2
Размер файла                     : 4,34 Гбайт
Продолжительность                : 1 ч. 55 м.
Общий поток                      : 5371 Кбит/сек
Название фильма                  : Lawless.2012
Дата кодирования                 : UTC 2012-12-24 16:31:22
Программа кодирования            : mkvmerge v5.8.0 ('No Sleep / Pillow') built on Sep  2 2012 15:37:04
Библиотека кодирования           : libebml v1.2.3 + libmatroska v1.3.0
Видео
Идентификатор                    : 1
Формат                           : AVC
Формат/Информация                : Advanced Video Codec
Профиль формата                  : [email protected]
Параметр CABAC формата           : Да
Параметр ReFrames формата        : 11 кадров
Идентификатор кодека             : V_MPEG4/ISO/AVC
Продолжительность                : 1 ч. 55 м.
Битрейт                          : 3579 Кбит/сек
Ширина                           : 1200 пикселей
Высота                           : 500 пикселей
Соотношение сторон               : 2,40:1
Частота кадров                   : 23,976 кадра/сек
Цветовое пространство            : YUV
Субдискретизация насыщенности    : 4:2:0
Битовая глубина                  : 8 бит
Тип развёртки                    : Прогрессивная
Бит/(Пиксели*Кадры)              : 0.249
Размер потока                    : 2,81 Гбайт (65%)
Заголовок                        : Lawless.2012.BDRip-AVC_[rutracker.org]_by_Deerhoof
Библиотека кодирования           : x264 core 125 r2200 999b753
Настройки программы              : cabac=1 / ref=11 / deblock=1:-2:-1 / analyse=0x3:0x133 / me=umh / subme=11 / psy=1 / psy_rd=1.05:0.10 / mixed_ref=1 / me_range=48 / chroma_me=1 / trellis=2 / 8x8dct=1 / cqm=0 / deadzone=21,11 / fast_pskip=0 / chroma_qp_offset=-3 / threads=6 / lookahead_threads=1 / sliced_threads=0 / nr=0 / decimate=0 / interlaced=0 / bluray_compat=0 / constrained_intra=0 / bframes=11 / b_pyramid=2 / b_adapt=2 / b_bias=0 / direct=3 / weightb=1 / open_gop=0 / weightp=2 / keyint=240 / keyint_min=23 / scenecut=40 / intra_refresh=0 / rc=2pass / mbtree=0 / bitrate=3579 / ratetol=1.0 / qcomp=0.60 / qpmin=0 / qpmax=69 / qpstep=4 / cplxblur=20.0 / qblur=0.5 / ip_ratio=1.40 / pb_ratio=1.30 / aq=2:0.90
Язык                             : English
Коэффициенты матрицы             : BT.709-5, BT.1361, IEC 61966-2-4 709, SMPTE RP177
Аудио #1
Идентификатор                    : 2
Формат                           : AC-3
Формат/Информация                : Audio Coding 3
Расширение режима                : CM (complete main)
Идентификатор кодека             : A_AC3
Продолжительность                : 1 ч. 55 м.
Вид битрейта                     : Постоянный
Битрейт                          : 448 Кбит/сек
Каналы                           : 6 каналов
Расположение каналов             : Front: L C R, Side: L R, LFE
Частота                          : 48,0 КГц
Битовая глубина                  : 16 бит
Метод сжатия                     : С потерями
Размер потока                    : 371 Мбайт (8%)
Заголовок                        : Авторский (одноголосый закадровый) Ю.Сербин
Язык                             : Russian
Аудио #2
Идентификатор                    : 3
Формат                           : AC-3
Формат/Информация                : Audio Coding 3
Расширение режима                : CM (complete main)
Идентификатор кодека             : A_AC3
Продолжительность                : 1 ч. 55 м.
Вид битрейта                     : Постоянный
Битрейт                          : 448 Кбит/сек
Каналы                           : 6 каналов
Расположение каналов             : Front: L C R, Side: L R, LFE
Частота                          : 48,0 КГц
Битовая глубина                  : 16 бит
Метод сжатия                     : С потерями
Размер потока                    : 371 Мбайт (8%)
Заголовок                        : Одноголосый закадровый А. Дасевич по авторскому переводу Воронина
Язык                             : Russian
Аудио #3
Идентификатор                    : 4
Формат                           : AC-3
Формат/Информация                : Audio Coding 3
Расширение режима                : CM (complete main)
Идентификатор кодека             : A_AC3
Продолжительность                : 1 ч. 55 м.
Вид битрейта                     : Постоянный
Битрейт                          : 448 Кбит/сек
Каналы                           : 6 каналов
Расположение каналов             : Front: L C R, Side: L R, LFE
Частота                          : 48,0 КГц
Битовая глубина                  : 16 бит
Метод сжатия                     : С потерями
Размер потока                    : 371 Мбайт (8%)
Заголовок                        : Одноголосый закадровый Вячеслав Замез по переводу Михаила Коновалова
Язык                             : Russian
Аудио #4
Идентификатор                    : 5
Формат                           : AC-3
Формат/Информация                : Audio Coding 3
Расширение режима                : CM (complete main)
Идентификатор кодека             : A_AC3
Продолжительность                : 1 ч. 55 м.
Вид битрейта                     : Постоянный
Битрейт                          : 448 Кбит/сек
Каналы                           : 6 каналов
Расположение каналов             : Front: L C R, Side: L R, LFE
Частота                          : 48,0 КГц
Битовая глубина                  : 16 бит
Метод сжатия                     : С потерями
Размер потока                    : 371 Мбайт (8%)
Язык                             : English
Текст #1
Идентификатор                    : 6
Формат                           : UTF-8
Идентификатор кодека             : S_TEXT/UTF8
Идентификатор кодека/Информация  : UTF-8 Plain Text
Заголовок                        : lord666
Язык                             : Russian
Текст #2
Идентификатор                    : 7
Формат                           : UTF-8
Идентификатор кодека             : S_TEXT/UTF8
Идентификатор кодека/Информация  : UTF-8 Plain Text
Язык                             : English
Текст #3
Идентификатор                    : 8
Формат                           : UTF-8
Идентификатор кодека             : S_TEXT/UTF8
Идентификатор кодека/Информация  : UTF-8 Plain Text
Язык                             : Spanish
Меню
00:00:00.000                     : en:00:00:00.000
00:04:36.818                     : en:00:04:36.818
00:09:16.639                     : en:00:09:16.639
00:14:39.587                     : en:00:14:39.587
00:21:55.689                     : en:00:21:55.689
00:26:34.343                     : en:00:26:34.343
00:34:23.895                     : en:00:34:23.895
00:41:06.964                     : en:00:41:06.964
00:48:30.825                     : en:00:48:30.825
00:56:45.652                     : en:00:56:45.652
01:05:11.074                     : en:01:05:11.074
01:11:21.903                     : en:01:11:21.903
01:19:30.724                     : en:01:19:30.724
01:25:00.887                     : en:01:25:00.887
01:31:49.838                     : en:01:31:49.838
01:37:32.889                     : en:01:37:32.889
01:44:44.737                     : en:01:44:44.737
01:49:07.708                     : en:01:49:07.708

[Цитировать]

Топик был перенесен из форума Новинки кинопроката в форум Драма
Henkok



Показать сообщения:    

Текущее время: 06-Дек 21:00

Часовой пояс: UTC + 3


Вы не можете начинать темы
Вы не можете отвечать на сообщения
Вы не можете редактировать свои сообщения
Вы не можете удалять свои сообщения
Вы не можете голосовать в опросах
Вы не можете прикреплять файлы к сообщениям
Вы не можете скачивать файлы

!ВНИМАНИЕ!
Сайт не предоставляет электронные версии произведений, а занимается лишь коллекционированием и каталогизацией ссылок, присылаемых и публикуемых на форуме нашими читателями. Если вы являетесь правообладателем какого-либо представленного материала и не желаете, чтобы ссылка на него находилась в нашем каталоге, свяжитесь с нами, и мы незамедлительно удалим ее. Файлы для обмена на трекере предоставлены пользователями сайта, и администрация не несет ответственности за их содержание. Просьба не заливать файлы, защищенные авторскими правами, а также файлы нелегального содержания!