[ Сегодня идет свободное скачивание без начисления Download ]


Статистика раздачи
Нет
 
   
 
Top  
 
 
Равнины Меркурия / Mercury Plains (2016) WEB-DL 1080 Информация о фильме
Название: Равнины Меркурия
Оригинальное название: Mercury Plains
Год выхода: 2016
Жанр: Боевик, драма, приключения
Режиссер: Чарльз Бурмейстер
В ролях: Скотт Иствуд, Анджела Сарафян, Ник Чинланд, Хорхе А. Хименес, Кэтерин Уиллис, Сью Рок, Майк Гассэвей, Кит Поулсон, Марк Хэнсон, Джастин Арнольд
О фильме:
Столкнувшись с мрачным будущим, молодой человек сбегает в Мексику. Там он оказывается вовлечен в военизированную группу подростков, которые борются с картелями.

Страна: США
Студия: Number 5 Films, Republic of EPIC
Продолжительность: 01:42:06
Перевод: Любительский одноголосый (закадровый) | datynet
Файл
Кодек: MPEG-4
Качество: WEB-DL 1080p
Видео: 1912x812, 4406 Kbit/s, 23.976 fps
Звук:
Аудио #01: 48 kHz, AC3, 2.0, 192 Kbps | Любительский одноголосый (закадровый), datynet' Куценко |
Аудио #02: 48 kHz, AC3, 5.1, 384 kbps | Оригинал |
Субтитры: Английские

MI

Общее
Уникальный идентификатор : 224027510536618074277577330563839792509 (0xA88A210C19E999B091BDF8932B19957D)
Полное имя : F:VideoMercury.Plains.2016.WEB-DL.1080p.ExKinoRay.mkv
Формат : Matroska
Версия формата : Version 4 / Version 2
Размер файла : 3,55 Гбайт
Продолжительность : 1 ч. 42 м.
Общий поток : 4983 Кбит/сек
Название фильма : Mercury.Plains.2016.WEB-DL.1080p.ExKinoRay
Дата кодирования : UTC 2016-04-29 21:36:55
Программа кодирования : mkvmerge v8.3.0 ('Over the Horizon') 64bit
Библиотека кодирования : libebml v1.3.1 + libmatroska v1.4.2
Видео
Идентификатор : 1
Формат : AVC
Формат/Информация : Advanced Video Codec
Профиль формата : High@L4
Параметр CABAC формата : Да
Параметр ReFrames формата : 5 кадров
Идентификатор кодека : V_MPEG4/ISO/AVC
Продолжительность : 1 ч. 42 м.
Битрейт : 4406 Кбит/сек
Ширина : 1912 пикселей
Высота : 812 пикселей
Соотношение сторон : 2,35:1
Режим частоты кадров : Постоянный
Частота кадров : 23,976 кадра/сек
Цветовое пространство : YUV
Субдискретизация насыщенности : 4:2:0
Битовая глубина : 8 бит
Тип развёртки : Прогрессивная
Бит/(Пиксели*Кадры) : 0.118
Размер потока : 3,14 Гбайт (88%)
Язык : English
Default : Да
Forced : Нет
Цветовой диапазон : Limited
Основные цвета : BT.709
Характеристики трансфера : BT.709
Коэффициенты матрицы : BT.709
Аудио #1
Идентификатор : 2
Формат : AC-3
Формат/Информация : Audio Coding 3
Расширение режима : CM (complete main)
Параметр Endianness формата : Big
Идентификатор кодека : A_AC3
Продолжительность : 1 ч. 42 м.
Вид битрейта : Постоянный
Битрейт : 192 Кбит/сек
Каналы : 2 канала
Расположение каналов : Front: L R
Частота : 48,0 КГц
Частота кадров : 31,250 кадров/сек (1536 spf)
Метод сжатия : С потерями
Размер потока : 140 Мбайт (4%)
Заголовок : VO [datynet, Куценко]
Язык : Russian
Default : Да
Forced : Нет
Аудио #2
Идентификатор : 3
Формат : AC-3
Формат/Информация : Audio Coding 3
Расширение режима : CM (complete main)
Параметр Endianness формата : Big
Идентификатор кодека : A_AC3
Продолжительность : 1 ч. 42 м.
Вид битрейта : Постоянный
Битрейт : 384 Кбит/сек
Каналы : 6 каналов
Расположение каналов : Front: L C R, Side: L R, LFE
Частота : 48,0 КГц
Частота кадров : 31,250 кадров/сек (1536 spf)
Метод сжатия : С потерями
Размер потока : 280 Мбайт (8%)
Язык : English
Default : Нет
Forced : Нет
Текст
Идентификатор : 4
Формат : UTF-8
Идентификатор кодека : S_TEXT/UTF8
Идентификатор кодека/Информация : UTF-8 Plain Text
Продолжительность : 1 ч. 36 м.
Битрейт : 27 бит/сек
Count of elements : 666
Размер потока : 19,5 Кбайт (0%)
Язык : English
Default : Нет
Forced : Нет
Меню
00:00:00.000 : en:1
00:10:26.000 : en:2
00:19:30.000 : en:3
00:29:04.000 : en:4
00:39:24.000 : en:5
00:48:47.000 : en:6
00:59:23.000 : en:7
01:12:32.000 : en:8
01:21:48.000 : en:9
01:38:00.000 : en:10

Скриншоты

[Цитировать]



Показать сообщения:    

Текущее время: 11-Дек 09:10

Часовой пояс: UTC + 3


Вы не можете начинать темы
Вы не можете отвечать на сообщения
Вы не можете редактировать свои сообщения
Вы не можете удалять свои сообщения
Вы не можете голосовать в опросах
Вы не можете прикреплять файлы к сообщениям
Вы не можете скачивать файлы

!ВНИМАНИЕ!
Сайт не предоставляет электронные версии произведений, а занимается лишь коллекционированием и каталогизацией ссылок, присылаемых и публикуемых на форуме нашими читателями. Если вы являетесь правообладателем какого-либо представленного материала и не желаете, чтобы ссылка на него находилась в нашем каталоге, свяжитесь с нами, и мы незамедлительно удалим ее. Файлы для обмена на трекере предоставлены пользователями сайта, и администрация не несет ответственности за их содержание. Просьба не заливать файлы, защищенные авторскими правами, а также файлы нелегального содержания!