[ Сегодня идет свободное скачивание без начисления Download ]


Статистика раздачи
Нет
 
   
 
Top  
 
 
Работорговля / Skin Trade (2014) BDRip 720p Информация о фильме
Название: Работорговля
Оригинальное название: Skin Trade
Год выхода: 2014
Жанр: Боевик, триллер, драма
Режиссер: Экачай Уэкронгтам
В ролях: Рон Перлман, Тони Джаа, Дольф Лундгрен, Питер Уэллер, Майкл Джей Уайт, Селина Жаде, Конан Стивенс, Кэри-Хироюки Тагава, Тася Телес, Майк Допуд
О фильме:
Подпольная, теневая торговля, чёрный рынок — синонимы одной из острейших и наболевших проблем современного общества. Но сбыт человеческих органов — ещё более страшная реальность, с которой сталкивается герой столь непростой истории. Полицейский-детектив расследует дело о похищении и вероятности продажи «на органы» одной девушки. Распутывая клубок гениально спланированного преступления, он лицом к лицу сталкивается с целой подпольной системой, рынком рабов, в котором свои заправилы и боссы являются вершителями судеб сотен и тысяч невинных и беззащитных. Приоткрыв завесу над кошмаром во плоти, простому копу придётся вступить в неравную борьбу с представителями рынка, в борьбу, из которой практически невозможно выйти победителем…

Страна: США, Таиланд, Канада
Продолжительность: 01:36:17
Перевод: Авторский (Михаил Чадов)

Файл
Кодек: x264
Качество: BDRip 720p
Видео: 1280х536 (2.40:1), 23,976 fps, AVC (H.264), [email protected], ~2980 Kbps avg, 0.181 bit/pixel
Аудио #1: 48 kHz, AC3 Dolby Digital, 3/2 (L,C,R,l,r) + LFE ch, ~448.00 kbps avg | RUS
Аудио #2: 48 kHz, AC3 Dolby Digital, 3/2 (L,C,R,l,r) + LFE ch, ~640.00 kbps avg | ENG

MI

General
Unique ID : 219152651146672563001236554689349180010 (0xA4DF43EC3E0C97F1BF4D7FEC85E05A6A)
Complete name : J:СборкаРаботорговля. - Skin.Trade.2014.720p.BDRip.x264.AC3.mkv
Format : Matroska
Format version : Version 4 / Version 2
File size : 2.73 GiB
Duration : 1h 36mn
Overall bit rate : 4 055 Kbps
Encoded date : UTC 2016-04-29 17:33:59
Writing application : mkvmerge v7.3.0 ('Nouages') 32bit built on Oct 22 2014 18:44:01
Writing library : libebml v1.3.0 + libmatroska v1.4.1
DURATION : 01:36:17.216000000
NUMBER_OF_FRAMES : 180538
NUMBER_OF_BYTES : 323524096
_STATISTICS_WRITING_APP : mkvmerge v7.3.0 ('Nouages') 32bit built on Oct 22 2014 18:44:01
_STATISTICS_WRITING_DATE_UTC : 2016-04-29 17:33:59
_STATISTICS_TAGS : BPS DURATION NUMBER_OF_FRAMES NUMBER_OF_BYTES
Video #1
ID : 1
Format : AVC
Format/Info : Advanced Video Codec
Format profile : [email protected]
Format settings, CABAC : Yes
Format settings, ReFrames : 12 frames
Codec ID : V_MPEG4/ISO/AVC
Duration : 1h 36mn
Bit rate : 2 980 Kbps
Width : 1 280 pixels
Height : 536 pixels
Display aspect ratio : 2.40:1
Frame rate mode : Constant
Frame rate : 23.976 fps
Color space : YUV
Chroma subsampling : 4:2:0
Bit depth : 8 bits
Scan type : Progressive
Bits/(Pixel*Frame) : 0.181
Stream size : 1.94 GiB (71%)
Writing library : x264 core 146 r2538kMod 121396c
Encoding settings : cabac=1 / ref=12 / deblock=1:-3:-3 / analyse=0x3:0x133 / me=umh / subme=10 / psy=1 / fade_compensate=0.00 / psy_rd=1.00:0.00 / mixed_ref=1 / me_range=64 / chroma_me=1 / trellis=2 / 8x8dct=1 / cqm=0 / deadzone=21,11 / fast_pskip=0 / chroma_qp_offset=-2 / threads=12 / lookahead_threads=3 / sliced_threads=0 / nr=0 / decimate=1 / interlaced=0 / bluray_compat=0 / constrained_intra=0 / fgo=0 / bframes=10 / b_pyramid=2 / b_adapt=2 / b_bias=0 / direct=3 / weightb=1 / open_gop=0 / weightp=2 / keyint=240 / keyint_min=23 / scenecut=40 / intra_refresh=0 / rc_lookahead=240 / rc=2pass / mbtree=1 / bitrate=2980 / ratetol=1.0 / qcomp=0.60 / qpmin=0 / qpmax=69 / qpstep=4 / cplxblur=20.0 / qblur=0.5 / vbv_maxrate=40000 / vbv_bufsize=30000 / nal_hrd=none / filler=0 / ip_ratio=1.40 / aq=1:1.00
Default : Yes
Forced : No
Color primaries : BT.709
Transfer characteristics : BT.709
Matrix coefficients : BT.709
Audio #2
ID : 2
Format : AC-3
Format/Info : Audio Coding 3
Mode extension : CM (complete main)
Format settings, Endianness : Big
Codec ID : A_AC3
Duration : 1h 36mn
Bit rate mode : Constant
Bit rate : 448 Kbps
Channel(s) : 6 channels
Channel positions : Front: L C R, Side: L R, LFE
Sampling rate : 48.0 KHz
Bit depth : 16 bits
Compression mode : Lossy
Stream size : 309 MiB (11%)
Default : Yes
Forced : No
Audio #3
ID : 3
Format : AC-3
Format/Info : Audio Coding 3
Mode extension : CM (complete main)
Format settings, Endianness : Big
Codec ID : A_AC3
Duration : 1h 36mn
Bit rate mode : Constant
Bit rate : 640 Kbps
Channel(s) : 6 channels
Channel positions : Front: L C R, Side: L R, LFE
Sampling rate : 48.0 KHz
Bit depth : 16 bits
Compression mode : Lossy
Stream size : 441 MiB (16%)
Title : English
Language : English
Default : No
Forced : No

Скриншоты

[Цитировать]



Показать сообщения:    

Текущее время: 04-Дек 17:20

Часовой пояс: UTC + 3


Вы не можете начинать темы
Вы не можете отвечать на сообщения
Вы не можете редактировать свои сообщения
Вы не можете удалять свои сообщения
Вы не можете голосовать в опросах
Вы не можете прикреплять файлы к сообщениям
Вы не можете скачивать файлы

!ВНИМАНИЕ!
Сайт не предоставляет электронные версии произведений, а занимается лишь коллекционированием и каталогизацией ссылок, присылаемых и публикуемых на форуме нашими читателями. Если вы являетесь правообладателем какого-либо представленного материала и не желаете, чтобы ссылка на него находилась в нашем каталоге, свяжитесь с нами, и мы незамедлительно удалим ее. Файлы для обмена на трекере предоставлены пользователями сайта, и администрация не несет ответственности за их содержание. Просьба не заливать файлы, защищенные авторскими правами, а также файлы нелегального содержания!