[ Сегодня идет свободное скачивание без начисления Download ]


Статистика раздачи
Нет
 
   
 
Top  
 
 
Коробка
«Твой двор. Твои правила»
Год выпуска: 2015
Страна: Россия
Производство: Телесто
Жанр: Драма, спорт, комедия
Режиссёр: Эдуард Бордуков
В ролях: Сергей Романович, Сергей Подольный, Кирилл Дегтярь, Георгий Соскин, Степан Тавризян, Сослан Засеев, Руслан Нигматулин, Ульви Вердиев, Стася Милославская, Евгения Дмитриева
Перевод: Не требуется [iTunes]
Субтитры: Нет
Описание: «Костя, Серж, Мел и Танцор — лучшие друзья. Они молоды и увлечены уличным футболом. Самый крутой из них Костя. Его девушка Настя считает, что он должен попробовать себя в профессиональной футбольной команде, но для Кости уличный футбол — это его жизнь, а футбольная коробка — второй дом, где играют только друзья, только свои.
Однажды команда Кости сталкивается на коробке с чужой компанией во главе с Дамиром, профессиональным футболистом. Не желая делить коробку, они устраивают жесткий бескомпромиссный турнир, в который постепенно втягиваются все жители района. Ставки растут, и на кону уже не только коробка. На кону дружба и любовь. И пути назад нет. Теперь это не просто игра, это война!»
Дата премьеры (РФ): 7 апреля 2016, «25th Floor Film»
Качество: WEB-DLRip
Продолжительность: 01:36:09
Формат: AVI
Видео кодек: XviD
Аудио кодек: AC3
Видео: 720x400 (16:9), 25 fps, XviD ~881 kbps avg, 0.122 bit/pixel
Аудио: AC3, 48 kHz, 2 ch, ~128.00 kbps avg

MediaInfo

Общее
Полное имя : D:TorrentsЗавершенныеK0P0bKa.2016.O.WEB-DLRip.700MB.avi
Формат : AVI
Формат/Информация : Audio Video Interleave
Размер файла : 701 Мбайт
Продолжительность : 1 ч. 36 м.
Общий поток : 1019 Кбит/сек
Название фильма : K0P0bKa.2016.O.WEB-DLRip.700MB
Программа кодирования : VirtualDubMod 1.5.10.3 | www.virtualdub-fr.org || (build 2550/release)
Формат оригинала/Имя : Movie
Видео
Идентификатор : 0
Формат : MPEG-4 Visual
Профиль формата : Advanced [email protected]
Параметр BVOP формата : 2
Параметр QPel формата : Нет
Параметр GMC формата : Без точки перехода
Параметр матрицы формата : Default (MPEG)
Идентификатор кодека : XVID
Идентификатор кодека/Подсказка : XviD
Продолжительность : 1 ч. 36 м.
Битрейт : 881 Кбит/сек
Ширина : 720 пикселей
Высота : 400 пикселей
Соотношение сторон : 16:9
Частота кадров : 25,000 кадров/сек
Цветовое пространство : YUV
Субдискретизация насыщенности : 4:2:0
Битовая глубина : 8 бит
Тип развёртки : Прогрессивная
Метод сжатия : С потерями
Бит/(Пиксели*Кадры) : 0.122
Размер потока : 606 Мбайт (86%)
Библиотека кодирования : XviD 1.2.1 (UTC 2008-12-04)
Аудио
Идентификатор : 1
Формат : AC-3
Формат/Информация : Audio Coding 3
Расширение режима : CM (complete main)
Параметр Endianness формата : Big
Идентификатор кодека : 2000
Продолжительность : 1 ч. 36 м.
Вид битрейта : Постоянный
Битрейт : 128 Кбит/сек
Каналы : 2 канала
Расположение каналов : Front: L R
Частота : 48,0 КГц
Частота кадров : 31,250 кадров/сек (1536 spf)
Метод сжатия : С потерями
Размер потока : 88,0 Мбайт (13%)
Выравнивание : Разделение по промежуткам
Продолжительность промежутка : 40 мс. (1,00 видеокадр)
Время предзагрузки промежутка : 500 мс.

Скриншоты

[Цитировать]



Показать сообщения:    

Текущее время: 06-Дек 22:58

Часовой пояс: UTC + 3


Вы не можете начинать темы
Вы не можете отвечать на сообщения
Вы не можете редактировать свои сообщения
Вы не можете удалять свои сообщения
Вы не можете голосовать в опросах
Вы не можете прикреплять файлы к сообщениям
Вы не можете скачивать файлы

!ВНИМАНИЕ!
Сайт не предоставляет электронные версии произведений, а занимается лишь коллекционированием и каталогизацией ссылок, присылаемых и публикуемых на форуме нашими читателями. Если вы являетесь правообладателем какого-либо представленного материала и не желаете, чтобы ссылка на него находилась в нашем каталоге, свяжитесь с нами, и мы незамедлительно удалим ее. Файлы для обмена на трекере предоставлены пользователями сайта, и администрация не несет ответственности за их содержание. Просьба не заливать файлы, защищенные авторскими правами, а также файлы нелегального содержания!