[ Сегодня идет свободное скачивание без начисления Download ]


Статистика раздачи
Нет
 
   
 
Top  
 
 
Бэтмен против Супермена: На заре справедливости / Batman v Superman: Dawn of Justice ♦ Год выпуска: 2016
♦ Страна: США
♦ Производство: Atlas Entertainment, DC Comics, DC Entertainment, RatPac-Dune Entertainment, Warner Bros. Pictures
♦ Жанр: Фантастика, фэнтези, боевик, приключения
♦ Режиссёр: Зак Снайдер
♦ В ролях: Генри Кавилл, Бен Аффлек, Галь Гадот, Джейсон Момоа, Эми Адамс, Джесси Айзенберг, Джеффри Дин Морган, Джена Мэлоун, Эзра Миллер
♦ Перевод: Профессиональный (полное дублированние) [звук с TS]
♦ Субтитры: Местами присутствуют китайские субтитры
♦ Описание: Опасаясь, что действия богоподобного супергероя так и останутся бесконтрольными, грозный и могущественный страж Готэм Сити бросает вызов самому почитаемому в наши дни спасителю Метрополиса, в то время как весь остальной мир решает, какой герой ему по-настоящему нужен. И пока Бэтмен и Супермен пребывают в состоянии войны друг с другом, возникает новая угроза, которая ставит человечество под самую большую опасность, с которой оно когда-либо сталкивалось.
♦ Доп инфо: Местами присутствуют китайские субтитры! ♦ Качество: Telecine
♦ Продолжительность: 02:31:25
♦ Формат: AVI
♦ Видео кодек: XviD
♦ Аудио кодек: AC-3
♦ Видео:720x304 (2.37:1), 29.970 fps, XviD build 50, 1937 kbps avg, 0.29 bit/pixel
♦ Аудио: 48 kHz, AC3 Dolby Digital, 2/0 (L,R) ch, 128 kbps [RUS]
♦ Дата премьеры (мир): 12 марта 2016
♦ Дата премьеры (РФ): 24 марта 2016, «Каро-Премьер»

MediaInfo

General
Complete name : D:\B.vs.S.Ha.3ape.CpraBedL1B0Ct1.2016.D.TC.avi
Format : AVI
Format/Info : Audio Video Interleave
Format profile : OpenDML
File size : 2.19 GiB
Duration : 2h 31mn
Overall bit rate : 2 074 Kbps
Writing application : VirtualDubMod 1.5.10.3 | www.virtualdub-fr.org || (build 2550/release)
Writing library : VirtualDubMod build 2550/release
Video
ID : 0
Format : MPEG-4 Visual
Format profile : Advanced [email protected]
Format settings, BVOP : 2
Format settings, QPel : No
Format settings, GMC : No warppoints
Format settings, Matrix : Default (MPEG)
Codec ID : XVID
Codec ID/Hint : XviD
Duration : 2h 31mn
Bit rate : 1 931 Kbps
Width : 720 pixels
Height : 304 pixels
Display aspect ratio : 2.35:1
Frame rate : 29.970 fps
Color space : YUV
Chroma subsampling : 4:2:0
Bit depth : 8 bits
Scan type : Progressive
Compression mode : Lossy
Bits/(Pixel*Frame) : 0.294
Stream size : 2.04 GiB (93%)
Writing library : XviD 1.2.1 (UTC 2008-12-04)
Audio
ID : 1
Format : AC-3
Format/Info : Audio Coding 3
Mode extension : CM (complete main)
Format settings, Endianness : Big
Codec ID : 2000
Duration : 2h 31mn
Bit rate mode : Constant
Bit rate : 128 Kbps
Channel(s) : 2 channels
Channel positions : Front: L R
Sampling rate : 48.0 KHz
Bit depth : 16 bits
Compression mode : Lossy
Stream size : 139 MiB (6%)
Alignment : Split accross interleaves
Interleave, duration : 33 ms (1.00 video frame)
Interleave, preload duration : 500 ms

Скриншоты

[Цитировать]



Показать сообщения:    

Текущее время: 04-Дек 02:56

Часовой пояс: UTC + 3


Вы не можете начинать темы
Вы не можете отвечать на сообщения
Вы не можете редактировать свои сообщения
Вы не можете удалять свои сообщения
Вы не можете голосовать в опросах
Вы не можете прикреплять файлы к сообщениям
Вы не можете скачивать файлы

!ВНИМАНИЕ!
Сайт не предоставляет электронные версии произведений, а занимается лишь коллекционированием и каталогизацией ссылок, присылаемых и публикуемых на форуме нашими читателями. Если вы являетесь правообладателем какого-либо представленного материала и не желаете, чтобы ссылка на него находилась в нашем каталоге, свяжитесь с нами, и мы незамедлительно удалим ее. Файлы для обмена на трекере предоставлены пользователями сайта, и администрация не несет ответственности за их содержание. Просьба не заливать файлы, защищенные авторскими правами, а также файлы нелегального содержания!