[ Сегодня идет свободное скачивание без начисления Download ]


Статистика раздачи
Скачал: [ 3 ]
 
   
 
Top  
 
 
Антиганг / Antigang ♦ Год выпуска: 2015
♦ Страна: Великобритания, Франция
♦ Производство: Capture The Flag Films
♦ Жанр: Боевик, драма
♦ Режиссёр: Бенжамен Роше
♦ В ролях: Жан Рено, Элбан Ленуар, Катерина Мурино, Умар Диау, Стефи Сельма, Себастьен ЛаЛэйнн, Тьерри Нёвик, Жан-Туссен Бернард, Якоб Седергрен, Эстер Козёль
♦ Перевод: Профессиональный (полное дублированние)
♦ Субтитры: Нет
♦ Описание: Бывалый коп Бюрен не любит правила. Чтобы держать под жестким контролем преступный мир, его боевая группа предпочитает использовать методы, выходящие за рамки закона. С приходом нового босса Ленуара им приходится немного поумерить пыл, и действовать подпольно.
Попытка остановить ограбление банка оборачивается кровавой баней и ожесточенной перестрелкой прямо на улицах Парижа, за что Бюрена отстраняют от службы. Осознав, что налет был лишь началом гораздо большей преступной операции, коп решает действовать.
♦ Доп инфо: Релиз без рекламы! ♦ Качество: BDRip
♦ Продолжительность: 01:32:43
♦ Формат: AVI
♦ Видео кодек: XviD
♦ Аудио кодек: AC3
♦ Видео: 720x304 (2.37:1), 24 fps, XviD build 50 ~1712 kbps avg, 0.326 bit/pixel
♦ Аудио: 48 kHz, AC3 Dolby Digital, 2/0 (L,R) ch, ~384 kbps
♦ Дата премьеры (мир): 19 августа 2015
♦ Дата премьеры (РФ): 4 февраля 2016, «Top Film Distribution»

MediaInfo:

Общее
Полное имя : E:\Kaztorka\Antigang.2015.D.BDRip_by_Twi7ter.avi
Формат : AVI
Формат/Информация : Audio Video Interleave
Размер файла : 1,42 Гбайт
Продолжительность : 1 ч. 32 м.
Общий поток : 2192 Кбит/сек
Название фильма : Antigang.2015.D.BDRip_by_Twi7ter
Режиссёр : Twi7ter
Жанр : Action/Drama
Формат оригинала/Имя : Movie
Видео
Идентификатор : 0
Формат : MPEG-4 Visual
Профиль формата : Advanced Simple@L5
Параметр BVOP формата : 2
Параметр QPel формата : Нет
Параметр GMC формата : Без точки перехода
Параметр матрицы формата : Выборочная
Идентификатор кодека : XVID
Идентификатор кодека/Подсказка : XviD
Продолжительность : 1 ч. 32 м.
Битрейт : 1712 Кбит/сек
Ширина : 720 пикселей
Высота : 304 пикселя
Соотношение сторон : 2,35:1
Частота кадров : 24,000 кадра/сек
Цветовое пространство : YUV
Субдискретизация насыщенности : 4:2:0
Битовая глубина : 8 бит
Тип развёртки : Прогрессивная
Метод сжатия : С потерями
Бит/(Пиксели*Кадры) : 0.326
Размер потока : 1,11 Гбайт (78%)
Библиотека кодирования : XviD 1.2.1 (UTC 2008-12-04)
Аудио
Идентификатор : 1
Формат : AC-3
Формат/Информация : Audio Coding 3
Расширение режима : CM (complete main)
Параметр Endianness формата : Big
Идентификатор кодека : 2000
Продолжительность : 1 ч. 32 м.
Вид битрейта : Постоянный
Битрейт : 384 Кбит/сек
Каналы : 2 канала
Расположение каналов : Front: L R
Частота : 48,0 КГц
Битовая глубина : 16 бит
Метод сжатия : С потерями
Размер потока : 255 Мбайт (18%)
Выравнивание : Соединение по промежуткам

Скриншоты

[Цитировать]



Показать сообщения:    

Текущее время: 10-Дек 15:51

Часовой пояс: UTC + 3


Вы не можете начинать темы
Вы не можете отвечать на сообщения
Вы не можете редактировать свои сообщения
Вы не можете удалять свои сообщения
Вы не можете голосовать в опросах
Вы не можете прикреплять файлы к сообщениям
Вы не можете скачивать файлы

!ВНИМАНИЕ!
Сайт не предоставляет электронные версии произведений, а занимается лишь коллекционированием и каталогизацией ссылок, присылаемых и публикуемых на форуме нашими читателями. Если вы являетесь правообладателем какого-либо представленного материала и не желаете, чтобы ссылка на него находилась в нашем каталоге, свяжитесь с нами, и мы незамедлительно удалим ее. Файлы для обмена на трекере предоставлены пользователями сайта, и администрация не несет ответственности за их содержание. Просьба не заливать файлы, защищенные авторскими правами, а также файлы нелегального содержания!