[ Сегодня идет свободное скачивание без начисления Download ]


Статистика раздачи
Нет
 
   
 
Top  
 
 
-Истребители. Последний бой (2015) WEB-DLRip 720p-LQ- Производство: Россия / "Star Media"
Жанр: драма, военный
Режиссер: Зиновий Ройзман
Актеры: Дмитрий Дюжев, Дмитрий Арбенин, Мария Андреева, Денис Константинов, Валентин Касьян, Алексей Демидов, Антон Сёмкин, Альберт Аванесян, Олеся Судзиловская, Валерия Ланская, Олег Никитин, Сергей Шаталов, Анастасия Веденская, Светлана Столярова, Ольга Филиппова, Сергей Лобанов, Дарья Белоусова, Павел Конек, Юрий Маслак, Мария Хижняк, Илья Рубанов, Анастасия Макеева, Алексей Овсянников, Анастасия Сорокина, Елена Махова, Игорь Литовкин и др.
Описание:
Для обеспечения советского наступления подполковник Бестужев получает приказ о формировании авиационного полка на базе новейших истребителей ЯК3. Для этого он собирает старых боевых товарищей, лучших выпускников летных училищ. В его полку служат не только мужчины, но и отважные красавицы летчицы. Им предстоит нелегкая задача разгадать хитроумный немецкий оборонительный план под экзотическим названием «Восточная шкатулка»… В самый разгар ожесточенных воздушных боев в помощь советским летчикам прибывает эскадрилья французских пилотов. Для смелого летчика не только война становится моральным испытанием, но и любовь.
Дата премьеры в России: 04 мая 2014
Продолжительность: ~00:52:00 серия
Качество видео: WEB-DLRip
Видео: AVC/H.264, 1280х720 (16:9), ~2600 kbps
Аудио: AC3, 2 ch, 192 kbps, CBR

Mediainfo:

Общее
Уникальный идентификатор                 : 196701182633120082283661521019577283875 (0x93FB450FD7113D22952C3100C227B523)
Полное имя                               : F:\DOWNLOADS\Истребители. Последний бой (2015) WEB-DLRip 720\Истребители. Последний бой - 01 серия.mkv
Формат                                   : Matroska
Версия формата                           : Version 2
Размер файла                             : 1,00 Гбайт
Продолжительность                        : 52 м.
Общий поток                              : 2758 Кбит/сек
Дата кодирования                         : UTC 2016-05-01 07:56:58
Программа кодирования                    : mkvmerge v7.8.0 ('River Man') 32bit built on Apr  3 2015 12:11:22
Библиотека кодирования                   : libebml v1.3.1 + libmatroska v1.4.2
Видео
Идентификатор                            : 1
Формат                                   : AVC
Формат/Информация                        : Advanced Video Codec
Профиль формата                          : High@L4
Параметр CABAC формата                   : Да
Параметр ReFrames формата                : 4 кадра
Идентификатор кодека                     : V_MPEG4/ISO/AVC
Продолжительность                        : 52 м.
Битрейт                                  : 2569 Кбит/сек
Ширина                                   : 1280 пикселей
Высота                                   : 720 пикселей
Соотношение сторон                       : 16:9
Режим частоты кадров                     : Постоянный
Частота кадров                           : 25,000 кадров/сек
Цветовое пространство                    : YUV
Субдискретизация насыщенности            : 4:2:0
Битовая глубина                          : 8 бит
Тип развёртки                            : Прогрессивная
Бит/(Пиксели*Кадры)                      : 0.112
Размер потока                            : 936 Мбайт (91%)
Библиотека кодирования                   : x264 core 142
Настройки программы                      : cabac=1 / ref=3 / deblock=1:0:0 / analyse=0x3:0x113 / me=hex / subme=7 / psy=1 / psy_rd=1.00:0.00 / mixed_ref=1 / me_range=16 / chroma_me=1 / trellis=1 / 8x8dct=1 / cqm=0 / deadzone=21,11 / fast_pskip=1 / chroma_qp_offset=-2 / threads=48 / lookahead_threads=5 / sliced_threads=0 / nr=0 / decimate=1 / interlaced=0 / bluray_compat=0 / constrained_intra=0 / bframes=6 / b_pyramid=2 / b_adapt=1 / b_bias=0 / direct=1 / weightb=1 / open_gop=0 / weightp=2 / keyint=200 / keyint_min=20 / scenecut=0 / intra_refresh=0 / rc_lookahead=40 / rc=2pass / mbtree=1 / bitrate=2569 / ratetol=1.0 / qcomp=0.60 / qpmin=0 / qpmax=69 / qpstep=4 / cplxblur=20.0 / qblur=0.5 / vbv_maxrate=3854 / vbv_bufsize=10279 / nal_hrd=none / filler=0 / ip_ratio=1.40 / aq=1:1.00
Default                                  : Да
Forced                                   : Нет
Аудио
Идентификатор                            : 2
Формат                                   : AC-3
Формат/Информация                        : Audio Coding 3
Расширение режима                        : CM (complete main)
Параметр Endianness формата              : Big
Идентификатор кодека                     : A_AC3
Продолжительность                        : 52 м.
Вид битрейта                             : Постоянный
Битрейт                                  : 192 Кбит/сек
Каналы                                   : 2 канала
Расположение каналов                     : Front: L R
Частота                                  : 48,0 КГц
Частота кадров                           : 31,250 кадров/сек (1536 spf)
Метод сжатия                             : С потерями
Размер потока                            : 71,6 Мбайт (7%)
Default                                  : Да
Forced                                   : Нет
Скриншоты:

[Цитировать]



Показать сообщения:    

Текущее время: 11-Дек 11:04

Часовой пояс: UTC + 3


Вы не можете начинать темы
Вы не можете отвечать на сообщения
Вы не можете редактировать свои сообщения
Вы не можете удалять свои сообщения
Вы не можете голосовать в опросах
Вы не можете прикреплять файлы к сообщениям
Вы не можете скачивать файлы

!ВНИМАНИЕ!
Сайт не предоставляет электронные версии произведений, а занимается лишь коллекционированием и каталогизацией ссылок, присылаемых и публикуемых на форуме нашими читателями. Если вы являетесь правообладателем какого-либо представленного материала и не желаете, чтобы ссылка на него находилась в нашем каталоге, свяжитесь с нами, и мы незамедлительно удалим ее. Файлы для обмена на трекере предоставлены пользователями сайта, и администрация не несет ответственности за их содержание. Просьба не заливать файлы, защищенные авторскими правами, а также файлы нелегального содержания!