[ Сегодня идет свободное скачивание без начисления Download ]


Статистика раздачи
Нет
 
   
 
Top  
 
 
Охота на работу / Get a Job (2016) WEB-DLRip Информация о фильме
Название: Охота на работу
Оригинальное название: Get a Job
Год выпуска: 2016
Жанр: Комедия
Режиссер: Дилан Кидд
В ролях: Элисон Бри, Анна Кендрик, Брайан Крэнстон, Майлз Теллер, Николас Браун, Марша Гей Харден, Кристофер Минц-Плассе, Джон К. МакГинли, Хорхе Гарсиа, Рави Патель
О фильме:
Сюжет ленты строится вокруг выпускника колледжа и его друзей. Молодые специалисты стоят на распутье, чем заниматься, зачем и тому ли они учились. В стране Экономический кризис, а молодежь хочет отрываться.

Страна: США
Студия: CBS Films, Double Feature Films
Продолжительность: 01:22:46
Перевод: Любительский многоголосый [Paradox & Omskbird records]
Файл
Формат: AVI
Качество: WEB-DLRip
Видео: XviD, 720x400, 23.976 fps, 2119 kbps
Аудио: AC3, 2 ch, 384 kbps

Скриншоты

MediaInfo:

Общее
Полное имя : Get.a.Job.2016.WEB-DLRip.1450MB.MegaPeer.avi
Формат : AVI
Формат/Информация : Audio Video Interleave
Размер файла : 1,45 Гбайт
Продолжительность : 1 ч. 22 м.
Общий поток : 2513 Кбит/сек
Программа кодирования : VirtualDubMod 1.5.10.3 | www.virtualdub-fr.org || (build 2550/release)
Библиотека кодирования : VirtualDubMod build 2550/release
Видео
Идентификатор : 0
Формат : MPEG-4 Visual
Профиль формата : Advanced [email protected]
Параметр BVOP формата : 1
Параметр QPel формата : Нет
Параметр GMC формата : Без точки перехода
Параметр матрицы формата : Выборочная
Идентификатор кодека : XVID
Идентификатор кодека/Подсказка : XviD
Продолжительность : 1 ч. 22 м.
Битрейт : 2119 Кбит/сек
Ширина : 720 пикселей
Высота : 400 пикселей
Соотношение сторон : 16:9
Частота кадров : 23,976 (23976/1000) кадра/сек
Цветовое пространство : YUV
Субдискретизация насыщенности : 4:2:0
Битовая глубина : 8 бит
Тип развёртки : Прогрессивная
Метод сжатия : С потерями
Бит/(Пиксели*Кадры) : 0.307
Размер потока : 1,23 Гбайт (84%)
Библиотека кодирования : XviD 73
Аудио
Идентификатор : 1
Формат : AC-3
Формат/Информация : Audio Coding 3
Расширение режима : CM (complete main)
Параметр Endianness формата : Big
Идентификатор кодека : 2000
Продолжительность : 1 ч. 22 м.
Вид битрейта : Постоянный
Битрейт : 384 Кбит/сек
Каналы : 2 канала
Расположение каналов : Front: L R
Частота : 48,0 КГц
Частота кадров : 31,250 кадров/сек (1536 spf)
Метод сжатия : С потерями
Размер потока : 227 Мбайт (15%)
Выравнивание : Разделение по промежуткам
Продолжительность промежутка : 42 мс. (1,00 видеокадр)
Время предзагрузки промежутка : 500 мс.

[Цитировать]



Показать сообщения:    

Текущее время: 06-Дек 03:46

Часовой пояс: UTC + 3


Вы не можете начинать темы
Вы не можете отвечать на сообщения
Вы не можете редактировать свои сообщения
Вы не можете удалять свои сообщения
Вы не можете голосовать в опросах
Вы не можете прикреплять файлы к сообщениям
Вы не можете скачивать файлы

!ВНИМАНИЕ!
Сайт не предоставляет электронные версии произведений, а занимается лишь коллекционированием и каталогизацией ссылок, присылаемых и публикуемых на форуме нашими читателями. Если вы являетесь правообладателем какого-либо представленного материала и не желаете, чтобы ссылка на него находилась в нашем каталоге, свяжитесь с нами, и мы незамедлительно удалим ее. Файлы для обмена на трекере предоставлены пользователями сайта, и администрация не несет ответственности за их содержание. Просьба не заливать файлы, защищенные авторскими правами, а также файлы нелегального содержания!