[ Сегодня идет свободное скачивание без начисления Download ]


Статистика раздачи
Скачал: [ 5 ]
 
   
 
Top  
 
 
- ProfIT | PHP Готовимся к собеседованию (2016) PCRec - Автор (режиссер): Альберт Степанцев
Жанр: PHP, программирование
Описание:
С чего начать поиски работы начинающему программисту на PHP?
Москва или фриланс? Что делать, когда программисты на малой родине не в почете?
Заочное собеседование или очная встреча?
Junior, Middle, Senior - в чем разница?
Что должен знать начинающий, чтобы уверенно чувствовать себя на собеседовании?
Как приготовиться психологически?
Продолжительность: 02:26:23
Качество видео: PCRec
Видео: AVC/H.264, 1280x684, ~406 Kbps
Аудио: AAC, 2 ch, 192 Kbps, VBR

Mediainfo:

General
Complete name : C:\torrent\2016-04-27 Вебинар «PHP_ Готовимся к собеседованию».mp4
Format : MPEG-4
Format profile : Base Media / Version 2
Codec ID : mp42 (isom/mp42)
File size : 628 MiB
Duration : 2h 26mn
Overall bit rate mode : Variable
Overall bit rate : 600 Kbps
Encoded date : UTC 2016-04-27 20:16:26
Tagged date : UTC 2016-04-27 20:16:26
gsst : 0
gstd : 8783458
Video
ID : 1
Format : AVC
Format/Info : Advanced Video Codec
Format profile : High@L3.1
Format settings, CABAC : Yes
Format settings, ReFrames : 1 frame
Format settings, GOP : M=1, N=60
Codec ID : avc1
Codec ID/Info : Advanced Video Coding
Duration : 2h 26mn
Bit rate : 406 Kbps
Maximum bit rate : 3 349 Kbps
Width : 1 280 pixels
Height : 684 pixels
Display aspect ratio : 1.85:1
Frame rate mode : Constant
Frame rate : 15.000 fps
Color space : YUV
Chroma subsampling : 4:2:0
Bit depth : 8 bits
Scan type : Progressive
Bits/(Pixel*Frame) : 0.031
Stream size : 425 MiB (68%)
Tagged date : UTC 2016-04-27 20:18:54
Color range : Limited
Color primaries : BT.709
Transfer characteristics : BT.709
Matrix coefficients : BT.709
Audio
ID : 2
Format : AAC
Format/Info : Advanced Audio Codec
Format profile : LC
Codec ID : 40
Duration : 2h 26mn
Bit rate mode : Variable
Bit rate : 192 Kbps
Maximum bit rate : 201 Kbps
Channel(s) : 2 channels
Channel positions : Front: L R
Sampling rate : 44.1 KHz
Frame rate : 43.066 fps (1024 spf)
Compression mode : Lossy
Stream size : 201 MiB (32%)
Title : IsoMedia File Produced by Google, 5-11-2011
Language : English
Encoded date : UTC 2016-04-27 20:17:48
Tagged date : UTC 2016-04-27 20:18:54
Скриншоты:

[Цитировать]



Показать сообщения:    

Текущее время: 11-Дек 09:11

Часовой пояс: UTC + 3


Вы не можете начинать темы
Вы не можете отвечать на сообщения
Вы не можете редактировать свои сообщения
Вы не можете удалять свои сообщения
Вы не можете голосовать в опросах
Вы не можете прикреплять файлы к сообщениям
Вы не можете скачивать файлы

!ВНИМАНИЕ!
Сайт не предоставляет электронные версии произведений, а занимается лишь коллекционированием и каталогизацией ссылок, присылаемых и публикуемых на форуме нашими читателями. Если вы являетесь правообладателем какого-либо представленного материала и не желаете, чтобы ссылка на него находилась в нашем каталоге, свяжитесь с нами, и мы незамедлительно удалим ее. Файлы для обмена на трекере предоставлены пользователями сайта, и администрация не несет ответственности за их содержание. Просьба не заливать файлы, защищенные авторскими правами, а также файлы нелегального содержания!