[ Сегодня идет свободное скачивание без начисления Download ]


Статистика раздачи
Нет
 
   
 
Top  
 
 
Коля - перекати поле (2005) DVDRip-AVC Информация о фильме
Название: Коля - перекати поле
Год выхода: 2005
Жанр: Драма
Режиссер: Николай Досталь
В ролях: Андрей Жигалов, Алла Клюка, Ирина Розанова, Сергей Баталов, Лев Борисов, Анна Овсянникова, Владимир Толоконников, Владимир Капустин, Олег Гундорин, Радмир Калиткин
О фильме:
Эта комедийная мелодрама является продолжением известного во всем мире фильма режиссера Николая Досталя "Облако-рай"!В новом фильме рассказана история про тех же героев. Время действия - наши дни, место действия - небольшой провинциальный городок, затерявшийся на просторах России. Когда-то случайно брошенная при свидетелях фраза заставила Колю оставить свой дом и любимую девушку. Перебороздив моря и океаны, Коля возвращается в родной город, не подозревая о произошедших в его отсутствие переменах. Для земляков такой сюрприз - полная неожиданность, выплеснувшаяся бурей эмоций и переросшая в панику, ведь приезд Коли - самая настоящая угроза их размеренной жизни. И снова, как десять лет назад, Коля выдумывает историю, которая переворачивает всё с ног на голову, увлекая зрителей в новый, еще более крутой водоворот приключений...
Страна: Россия, Студия Стелла
Продолжительность: 01:36:41
Перевод: не требуется
Файл
Кодек: x264
Качество: DVDRip-AVC
Видео: MPEG-4 AVC, 1800 Кбит/с, 720x460@768x460
Звук: AC3, 2 ch, 192 Кбит/с

Скриншоты

Медиа-Инфо

raw [info]: 720x460p 16:15 @ 25/1 fps (cfr)
x264 [info]: using SAR=16/15
x264 [info]: using cpu capabilities: MMX2 SSE2Fast SSSE3 SSE4.2 AVX
x264 [info]: profile High, level 4.1
x264 [info]: frame I:45 Avg QP:14.25 size: 56612
x264 [info]: frame P:555 Avg QP:18.03 size: 20747
x264 [info]: frame B:1935 Avg QP:20.53 size: 4460
==========================================================================================================
Общее
Уникальный идентификатор : 183936830890553180223075184432460148985 (0x8A60F1EEB786714AB34DE101FF0930F9)
Полное имя : D:Коля - перекати Поле_2005-DVDRip-AVC.mkv
Формат : Matroska
Версия формата : Version 2
Размер файла : 1,52 Гбайт
Продолжительность : 1 ч. 36 м.
Общий поток : 2250 Кбит/сек
Дата кодирования : UTC 2016-04-29 18:53:35
Программа кодирования : mkvmerge v5.8.0 ('No Sleep / Pillow') built on Sep 2 2012 15:37:04
Библиотека кодирования : libebml v1.2.3 + libmatroska v1.3.0
Видео
Идентификатор : 1
Формат : AVC
Формат/Информация : Advanced Video Codec
Профиль формата : High@L4.1
Параметр CABAC формата : Да
Параметр ReFrames формата : 14 кадров
Идентификатор кодека : V_MPEG4/ISO/AVC
Продолжительность : 1 ч. 36 м.
Битрейт : 1800 Кбит/сек
Ширина : 720 пикселей
Высота : 460 пикселей
Соотношение сторон : 5:3
Режим частоты кадров : Постоянный
Частота кадров : 25,000 кадров/сек
Цветовое пространство : YUV
Субдискретизация насыщенности : 4:2:0
Битовая глубина : 8 бит
Тип развёртки : Прогрессивная
Бит/(Пиксели*Кадры) : 0.217
Размер потока : 1,19 Гбайт (78%)
Библиотека кодирования : x264 core 148 r2638 7599210
Настройки программы : cabac=1 / ref=14 / deblock=1:-2:-2 / analyse=0x3:0x133 / me=umh / subme=10 / psy=1 / psy_rd=1.05:0.15 / mixed_ref=1 / me_range=32 / chroma_me=1 / trellis=2 / 8x8dct=1 / cqm=0 / deadzone=21,11 / fast_pskip=0 / chroma_qp_offset=-3 / threads=12 / lookahead_threads=3 / sliced_threads=0 / nr=0 / decimate=0 / interlaced=0 / bluray_compat=0 / constrained_intra=0 / bframes=10 / b_pyramid=2 / b_adapt=2 / b_bias=0 / direct=3 / weightb=1 / open_gop=0 / weightp=2 / keyint=250 / keyint_min=25 / scenecut=40 / intra_refresh=0 / rc=2pass / mbtree=0 / bitrate=1800 / ratetol=1.0 / qcomp=0.63 / qpmin=0 / qpmax=39 / qpstep=4 / cplxblur=20.0 / qblur=0.5 / ip_ratio=1.40 / pb_ratio=1.30 / aq=1:1.00
Язык : English
Default : Да
Forced : Нет
Цветовой диапазон : Limited
Основные цвета : BT.601 PAL
Характеристики трансфера : BT.470 System B, BT.470 System G
Коэффициенты матрицы : BT.601
Аудио
Идентификатор : 2
Формат : AC-3
Формат/Информация : Audio Coding 3
Расширение режима : CM (complete main)
Параметр Endianness формата : Big
Идентификатор кодека : A_AC3
Продолжительность : 1 ч. 36 м.
Вид битрейта : Постоянный
Битрейт : 448 Кбит/сек
Каналы : 6 каналов
Расположение каналов : Front: L C R, Side: L R, LFE
Частота : 48,0 КГц
Метод сжатия : С потерями
Размер потока : 310 Мбайт (20%)
Язык : Russian
Default : Да
Forced : Нет
Меню
00:00:00.000 : ru:Chapter 1
00:06:53.400 : ru:Chapter 2
00:14:40.200 : ru:Chapter 3
00:23:42.000 : ru:Chapter 4
00:31:16.200 : ru:Chapter 5
00:41:55.200 : ru:Chapter 6
00:47:58.200 : ru:Chapter 7
00:58:02.400 : ru:Chapter 8
01:08:27.000 : ru:Chapter 9
01:14:09.000 : ru:Chapter 10
01:23:49.200 : ru:Chapter 11
01:32:03.000 : ru:Chapter 12

[Цитировать]



Показать сообщения:    

Текущее время: 09-Дек 10:48

Часовой пояс: UTC + 3


Вы не можете начинать темы
Вы не можете отвечать на сообщения
Вы не можете редактировать свои сообщения
Вы не можете удалять свои сообщения
Вы не можете голосовать в опросах
Вы не можете прикреплять файлы к сообщениям
Вы не можете скачивать файлы

!ВНИМАНИЕ!
Сайт не предоставляет электронные версии произведений, а занимается лишь коллекционированием и каталогизацией ссылок, присылаемых и публикуемых на форуме нашими читателями. Если вы являетесь правообладателем какого-либо представленного материала и не желаете, чтобы ссылка на него находилась в нашем каталоге, свяжитесь с нами, и мы незамедлительно удалим ее. Файлы для обмена на трекере предоставлены пользователями сайта, и администрация не несет ответственности за их содержание. Просьба не заливать файлы, защищенные авторскими правами, а также файлы нелегального содержания!