[ Сегодня идет свободное скачивание без начисления Download ]


Статистика раздачи
Скачал: [ 1 ]
 
   
 
Top  
 
 
Римские свидания / All Roads Lead to Rome «Флирт, любовь и секс в Вечном городе!» Год выпуска: 2015
Страна: Италия, США
Производство: Ambi Pictures, Paradox Studios
Жанр: комедия
Режиссёр: Элла Лемхаген / Ella Lemhagen
В ролях: Сара Джессика Паркер, Рози Дэй, Рауль Бова, Клаудия Кардинале, Пас Вега, Кьяра Бассерманн, Марко Бонини, Джанклаудио Каретта
Перевод: Профессиональный (полное дублирование) [iTunes]
Субтитры: Нет
Описание: У Мэгги все спланировано для идеального отпуска — солнце Рима и море Тосканы. Вот только ее 16-летняя дочь Саммер мечтает улететь назад в Штаты к своему бойфренду, а Мэгги случайно встречает свою первую любовь — сердцееда Луку и его взбалмошную мамашу, которая тоже норовит сбежать из дома к тайному возлюбленному. Расслабленный отдых оборачивается головокружительной погоней на красной альфа-ромео за беглянками-родственницами и… собственным счастьем.
сэмпл
Премьера (мир): 16 декабря 2015, ...
Премьера (РФ): 4 февраля 2016, «Экспонента»
Качество: WEB-DLRip
Продолжительность: 01:31:33
Формат: AVI
Видео кодек: XviD
Аудио кодек: AC3
Видео: 720x304 (2.35:1), 23.976 fps, XviD build 73 ~1 747 kbps avg, 0.333 bit/pixel
Аудио : 48 kHz, AC3 Dolby Digital, 3/2 (L,C,R,l,r) + LFE ch, ~384 kbps avg

Отчет MI

/RimSlie.Svidanki.2O15.D.WEB-DLRip.14OOMB.avi
Format : AVI
Format/Info : Audio Video Interleave
File size : 1.37 GiB
Duration : 1h 31mn
Overall bit rate : 2 140 Kbps
Writing application : VirtualDubMod 1.5.10.2 (build 2540/release)
Writing library : VirtualDubMod build 2540/release
Video
ID : 0
Format : MPEG-4 Visual
Format profile : Advanced Simple@L5
Format settings, BVOP : 2
Format settings, QPel : No
Format settings, GMC : No warppoints
Format settings, Matrix : Default (MPEG)
Codec ID : XVID
Codec ID/Hint : XviD
Duration : 1h 31mn
Bit rate : 1 747 Kbps
Width : 720 pixels
Height : 304 pixels
Display aspect ratio : 2.35:1
Frame rate : 23.976 fps
Color space : YUV
Chroma subsampling : 4:2:0
Bit depth : 8 bits
Scan type : Progressive
Compression mode : Lossy
Bits/(Pixel*Frame) : 0.333
Stream size : 1.12 GiB (82%)
Writing library : XviD 1.2.1 (UTC 2008-12-04)
Audio
ID : 1
Format : AC-3
Format/Info : Audio Coding 3
Mode extension : CM (complete main)
Format settings, Endianness : Big
Codec ID : 2000
Duration : 1h 31mn
Bit rate mode : Constant
Bit rate : 384 Kbps
Channel(s) : 6 channels
Channel positions : Front: L C R, Side: L R, LFE
Sampling rate : 48.0 KHz
Bit depth : 16 bits
Compression mode : Lossy
Stream size : 251 MiB (18%)
Alignment : Split accross interleaves
Interleave, duration : 42 ms (1.00 video frame)
Interleave, preload duration : 500 ms
[\spoiler]

Скриншоты

[Цитировать]



Показать сообщения:    

Текущее время: 08-Дек 09:05

Часовой пояс: UTC + 3


Вы не можете начинать темы
Вы не можете отвечать на сообщения
Вы не можете редактировать свои сообщения
Вы не можете удалять свои сообщения
Вы не можете голосовать в опросах
Вы не можете прикреплять файлы к сообщениям
Вы не можете скачивать файлы

!ВНИМАНИЕ!
Сайт не предоставляет электронные версии произведений, а занимается лишь коллекционированием и каталогизацией ссылок, присылаемых и публикуемых на форуме нашими читателями. Если вы являетесь правообладателем какого-либо представленного материала и не желаете, чтобы ссылка на него находилась в нашем каталоге, свяжитесь с нами, и мы незамедлительно удалим ее. Файлы для обмена на трекере предоставлены пользователями сайта, и администрация не несет ответственности за их содержание. Просьба не заливать файлы, защищенные авторскими правами, а также файлы нелегального содержания!