[ Сегодня идет свободное скачивание без начисления Download ]


Статистика раздачи
Нет
 
   
 
Top  
 
 
Горячие головы / Hot Shots!«Unprecendented! Uncut! Under 10 dollars!»
Год выпуска: 1991
Страна: США
Производство: 20th Century Fox Film Corporation
Жанр: боевик, комедия, военный
Режиссер: Джим Абрахамс
В ролях: Чарли Шин, Кэри Элвис, Валерия Голино, Ллойд Бриджес, Кевин Данн, Джон Крайер, Уильям О’Лири, Кристи Суонсон, Ефрем Цимбалист мл., Билл Ирвин
Перевод: Профессиональный (многоголосый) +2х Профессиональный (двухголосый) + Аторский (одноголосый (Михалёв)) + Аторский (одноголосый (Живов)) +Оригинал
Озвучка: ОРТ, НТВ+, Премьер-видео
Субтитры: Русские
Описание: Анекдотичные ситуации на военной базе, где герои, сами того не замечая, пародируют самые известные фильмы, заставят вас безудержно хохотать на протяжении всего фильма. Их горячие головы производят такое количество несуразных идей, что находиться рядом с ними просто опасно для здоровья.


Релиз от:
Качество: HDTV 720p
Продолжительность: 01:21:12
Формат: MKV
Видео кодек: AVC
Аудио кодек: AC3
Видео: 1280x694 (1.85:1), 25.000 fps, Advanced Video Codec, ~7 663 Kbps avg, 0.345 bit/pixel
Аудио: 48 kHz, Audio Coding 3, 2 channels, ~384 Kbps avg [Russian, Двухголосый, НТВ+]
Аудио #2: 48 kHz, Audio Coding 3, 2 channels, ~384 Kbps avg [Russian, Многоголосый, ОРТ]
Аудио #3: 48 kHz, Audio Coding 3, 2 channels, ~192 Kbps avg [Russian, Двухголосый, Премьер-видео]
Аудио #4: 48 kHz, Audio Coding 3, 2 channels, ~192 Kbps avg [Russian, Одноголосый, Михалев]
Аудио #5: 48 kHz, Audio Coding 3, 2 channels, ~384 Kbps avg [Russian, Одноголосый, Живов]
Аудио #6: 48 kHz, Audio Coding 3, 2 channels, ~384 Kbps avg [English, Оригинал]
Премьера (мир): 31 июля 1991

Media Info

General
Unique ID                      : 225214889728298263569724987449447974526 (0xA96ECF5C7C2C5693AF859B8AAC9A867E)
Complete name                  : D:\TORRENT\Hot.shots.1991.HDTVRip.720p.mkv
Format                         : Matroska
Format version                 : Version 2
File size                      : 5.55 GiB
Duration                       : 1h 21mn
Overall bit rate               : 9 778 Kbps
Movie name                     : Hot Shots! (1991) - Release for HDCLUB
Encoded date                   : UTC 2012-12-02 04:21:04
Writing application            : mkvmerge v5.7.0 ('The Whirlwind') built on Jul  8 2012 20:08:51
Writing library                : libebml v1.2.3 + libmatroska v1.3.0
Video
ID                             : 1
Format                         : AVC
Format/Info                    : Advanced Video Codec
Format profile                 : [email protected]
Format settings, CABAC         : Yes
Format settings, ReFrames      : 6 frames
Muxing mode                    : Header stripping
Codec ID                       : V_MPEG4/ISO/AVC
Duration                       : 1h 21mn
Bit rate                       : 7 663 Kbps
Width                          : 1 280 pixels
Height                         : 694 pixels
Display aspect ratio           : 1.85:1
Frame rate                     : 25.000 fps
Color space                    : YUV
Chroma subsampling             : 4:2:0
Bit depth                      : 8 bits
Scan type                      : Progressive
Bits/(Pixel*Frame)             : 0.345
Stream size                    : 4.35 GiB (78%)
Title                          : Release for HDCLUB
Writing library                : x264 core 124 r2197 69a0443
Encoding settings              : cabac=1 / ref=6 / deblock=1:-3:-3 / analyse=0x3:0x113 / me=umh / subme=9 / psy=1 / psy_rd=1.00:0.00 / mixed_ref=1 / me_range=24 / chroma_me=1 / trellis=1 / 8x8dct=1 / cqm=0 / deadzone=21,11 / fast_pskip=0 / chroma_qp_offset=-2 / threads=6 / sliced_threads=0 / nr=0 / decimate=0 / interlaced=0 / bluray_compat=0 / constrained_intra=0 / bframes=8 / b_pyramid=2 / b_adapt=2 / b_bias=0 / direct=1 / weightb=1 / open_gop=0 / weightp=2 / keyint=250 / keyint_min=25 / scenecut=40 / intra_refresh=0 / rc=crf / mbtree=0 / crf=20.5 / qcomp=0.60 / qpmin=0 / qpmax=69 / qpstep=4 / ip_ratio=1.40 / pb_ratio=1.30 / aq=1:1.00
Language                       : English
Default                        : Yes
Forced                         : No
Audio #1
ID                             : 2
Format                         : AC-3
Format/Info                    : Audio Coding 3
Mode extension                 : CM (complete main)
Format settings, Endianness    : Big
Muxing mode                    : Header stripping
Codec ID                       : A_AC3
Duration                       : 1h 21mn
Bit rate mode                  : Constant
Bit rate                       : 384 Kbps
Channel(s)                     : 2 channels
Channel positions              : Front: L R
Sampling rate                  : 48.0 KHz
Bit depth                      : 16 bits
Compression mode               : Lossy
Stream size                    : 223 MiB (4%)
Title                          : Двухголосый, НТВ+
Language                       : Russian
Default                        : Yes
Forced                         : No
Audio #2
ID                             : 3
Format                         : AC-3
Format/Info                    : Audio Coding 3
Mode extension                 : CM (complete main)
Format settings, Endianness    : Big
Muxing mode                    : Header stripping
Codec ID                       : A_AC3
Duration                       : 1h 21mn
Bit rate mode                  : Constant
Bit rate                       : 384 Kbps
Channel(s)                     : 2 channels
Channel positions              : Front: L R
Sampling rate                  : 48.0 KHz
Bit depth                      : 16 bits
Compression mode               : Lossy
Stream size                    : 223 MiB (4%)
Title                          : Многоголосый, ОРТ
Language                       : Russian
Default                        : No
Forced                         : No
Audio #3
ID                             : 4
Format                         : AC-3
Format/Info                    : Audio Coding 3
Mode extension                 : CM (complete main)
Format settings, Endianness    : Big
Muxing mode                    : Header stripping
Codec ID                       : A_AC3
Duration                       : 1h 21mn
Bit rate mode                  : Constant
Bit rate                       : 192 Kbps
Channel(s)                     : 2 channels
Channel positions              : Front: L R
Sampling rate                  : 48.0 KHz
Bit depth                      : 16 bits
Compression mode               : Lossy
Stream size                    : 112 MiB (2%)
Title                          : Двухголосый, Премьер-видео
Language                       : Russian
Default                        : No
Forced                         : No
Audio #4
ID                             : 5
Format                         : AC-3
Format/Info                    : Audio Coding 3
Format profile                 : Dolby Digital
Mode extension                 : CM (complete main)
Format settings, Endianness    : Big
Muxing mode                    : Header stripping
Codec ID                       : A_AC3
Duration                       : 1h 21mn
Bit rate mode                  : Constant
Bit rate                       : 192 Kbps
Channel(s)                     : 2 channels
Channel positions              : Front: L R
Sampling rate                  : 48.0 KHz
Bit depth                      : 16 bits
Compression mode               : Lossy
Stream size                    : 112 MiB (2%)
Title                          : Одноголосый, Михалев
Language                       : Russian
Default                        : No
Forced                         : No
Audio #5
ID                             : 6
Format                         : AC-3
Format/Info                    : Audio Coding 3
Mode extension                 : CM (complete main)
Format settings, Endianness    : Big
Muxing mode                    : Header stripping
Codec ID                       : A_AC3
Duration                       : 1h 21mn
Bit rate mode                  : Constant
Bit rate                       : 384 Kbps
Channel(s)                     : 2 channels
Channel positions              : Front: L R
Sampling rate                  : 48.0 KHz
Bit depth                      : 16 bits
Compression mode               : Lossy
Stream size                    : 223 MiB (4%)
Title                          : Одноголосый, Живов
Language                       : Russian
Default                        : No
Forced                         : No
Audio #6
ID                             : 7
Format                         : AC-3
Format/Info                    : Audio Coding 3
Mode extension                 : CM (complete main)
Format settings, Endianness    : Big
Muxing mode                    : Header stripping
Codec ID                       : A_AC3
Duration                       : 1h 21mn
Bit rate mode                  : Constant
Bit rate                       : 384 Kbps
Channel(s)                     : 2 channels
Channel positions              : Front: L R
Sampling rate                  : 48.0 KHz
Bit depth                      : 16 bits
Compression mode               : Lossy
Stream size                    : 223 MiB (4%)
Title                          : Оригинал
Language                       : English
Default                        : No
Forced                         : No
Text
ID                             : 8
Format                         : UTF-8
Codec ID                       : S_TEXT/UTF8
Codec ID/Info                  : UTF-8 Plain Text
Language                       : Russian
Default                        : No
Forced                         : No


Последний раз редактировалось: G_AleX (2013-01-08 15:13), всего редактировалось 6 раз(а)

[Цитировать]

В данных MeiaInfo нет дублированного перевода. Уберите. Добавте оригинальную звуковую дорожку!
Замените в описании вместо любительского (2 x Авторских)!

[Цитировать]



Показать сообщения:    

Текущее время: 06-Дек 05:58

Часовой пояс: UTC + 3


Вы не можете начинать темы
Вы не можете отвечать на сообщения
Вы не можете редактировать свои сообщения
Вы не можете удалять свои сообщения
Вы не можете голосовать в опросах
Вы не можете прикреплять файлы к сообщениям
Вы не можете скачивать файлы

!ВНИМАНИЕ!
Сайт не предоставляет электронные версии произведений, а занимается лишь коллекционированием и каталогизацией ссылок, присылаемых и публикуемых на форуме нашими читателями. Если вы являетесь правообладателем какого-либо представленного материала и не желаете, чтобы ссылка на него находилась в нашем каталоге, свяжитесь с нами, и мы незамедлительно удалим ее. Файлы для обмена на трекере предоставлены пользователями сайта, и администрация не несет ответственности за их содержание. Просьба не заливать файлы, защищенные авторскими правами, а также файлы нелегального содержания!