[ Сегодня идет свободное скачивание без начисления Download ]


Статистика раздачи
Нет
 
   
 
Top  
 
 
Маршрут построен Год выпуска: 2015
Страна: Россия
Производство: Ультра Стори
Жанр: Ужасы, триллер
Режиссёр: Олег Асадулин
В ролях: Светлана Устинова, Павел Чинарёв, Виталия Корниенко, Кристина Шаповалова, Сергей Сафронов, Илья Сафронов, Андрей Сафронов, Диана Мелисон, Александр Цёма
Перевод: Не требуется
Субтитры: Нет
Описание: Прошлой весной произошло страшное преступление — в результате ссоры муж убил жену, расчленил труп и спрятал в багажнике их автомобиля. Несмотря на попытки отвести от себя подозрение, убийца вскоре был арестован полицией. Андрей и Оля — семейная пара. Андрей покупает подозрительно дешевый автомобиль в хорошем состоянии. Тем же вечером, взяв свою пятилетнюю дочь, они отправляются в ночную поездку в другой город. В дороге Оля слышит какие-то странные звуки и говорит Андрею, что чувствует — с машиной что-то не то. Это вызывает раздражение Андрея, который ничего этого не замечает, и становится поводом для конфликта. Тем временем их дочка на заднем сидении общается с какой-то невидимой тетей, но родители не слышат. Призрак убитой женщины не любит семейных ссор, и наши герои в ее власти… Их маршрут уже построен.

Дата премьеры (РФ): 31 марта 2016, «Двадцатый Век Фокс СНГ»
Качество: WEB-DLRip
Продолжительность: 01:21:45
Формат: AVI
Видео кодек: XviD
Аудио кодек: AC3
Видео: 720x304 (2,35:1), 25 fps, XviD ~1059 kbps avg, 0.193 bit/pixel
Аудио: AC3, 48 kHz, 2 ch, ~128.00 kbps avg

MediaInfo

Общее
Полное имя : D:\Torrents\Завершенные\MaPWPut.p0CtP0eH.2O15.O.WEB-DLRip.700MB.avi
Формат : AVI
Формат/Информация : Audio Video Interleave
Размер файла : 700 Мбайт
Продолжительность : 1 ч. 21 м.
Общий поток : 1197 Кбит/сек
Название фильма : MaPWPut.p0CtP0eH.2O15.O.WEB-DLRip.700MB
Программа кодирования : VirtualDubMod 1.5.10.2 (build 2540/release)
Формат оригинала/Имя : Movie
Видео
Идентификатор : 0
Формат : MPEG-4 Visual
Профиль формата : Advanced Simple@L5
Параметр BVOP формата : 2
Параметр QPel формата : Нет
Параметр GMC формата : Без точки перехода
Параметр матрицы формата : Default (MPEG)
Идентификатор кодека : XVID
Идентификатор кодека/Подсказка : XviD
Продолжительность : 1 ч. 21 м.
Битрейт : 1059 Кбит/сек
Ширина : 720 пикселей
Высота : 304 пикселя
Соотношение сторон : 2,35:1
Частота кадров : 25,000 кадров/сек
Цветовое пространство : YUV
Субдискретизация насыщенности : 4:2:0
Битовая глубина : 8 бит
Тип развёртки : Прогрессивная
Метод сжатия : С потерями
Бит/(Пиксели*Кадры) : 0.193
Размер потока : 619 Мбайт (88%)
Библиотека кодирования : XviD 1.2.1 (UTC 2008-12-04)
Аудио
Идентификатор : 1
Формат : AC-3
Формат/Информация : Audio Coding 3
Расширение режима : CM (complete main)
Параметр Endianness формата : Big
Идентификатор кодека : 2000
Продолжительность : 1 ч. 21 м.
Вид битрейта : Постоянный
Битрейт : 128 Кбит/сек
Каналы : 2 канала
Расположение каналов : Front: L R
Частота : 44,1 КГц
Частота кадров : 28,711 кадров/сек (1536 spf)
Метод сжатия : С потерями
Размер потока : 74,8 Мбайт (11%)
Выравнивание : Разделение по промежуткам
Продолжительность промежутка : 40 мс. (1,00 видеокадр)
Время предзагрузки промежутка : 500 мс.

Скриншоты

[Цитировать]



Показать сообщения:    

Текущее время: 08-Дек 11:00

Часовой пояс: UTC + 3


Вы не можете начинать темы
Вы не можете отвечать на сообщения
Вы не можете редактировать свои сообщения
Вы не можете удалять свои сообщения
Вы не можете голосовать в опросах
Вы не можете прикреплять файлы к сообщениям
Вы не можете скачивать файлы

!ВНИМАНИЕ!
Сайт не предоставляет электронные версии произведений, а занимается лишь коллекционированием и каталогизацией ссылок, присылаемых и публикуемых на форуме нашими читателями. Если вы являетесь правообладателем какого-либо представленного материала и не желаете, чтобы ссылка на него находилась в нашем каталоге, свяжитесь с нами, и мы незамедлительно удалим ее. Файлы для обмена на трекере предоставлены пользователями сайта, и администрация не несет ответственности за их содержание. Просьба не заливать файлы, защищенные авторскими правами, а также файлы нелегального содержания!