[ Сегодня идет свободное скачивание без начисления Download ]


Статистика раздачи
Нет
 
   
 
Top  
 
 
Маршрут построен Год выпуска: 2015
Страна: Россия
Производство: Ультра Стори
Жанр: Ужасы, триллер
Режиссёр: Олег Асадулин
В ролях: Светлана Устинова, Павел Чинарёв, Виталия Корниенко, Кристина Шаповалова, Сергей Сафронов, Илья Сафронов, Андрей Сафронов, Диана Мелисон, Александр Цёма
Перевод: Не требуется
Субтитры: Нет
Описание: Прошлой весной произошло страшное преступление — в результате ссоры муж убил жену, расчленил труп и спрятал в багажнике их автомобиля. Несмотря на попытки отвести от себя подозрение, убийца вскоре был арестован полицией. Андрей и Оля — семейная пара. Андрей покупает подозрительно дешевый автомобиль в хорошем состоянии. Тем же вечером, взяв свою пятилетнюю дочь, они отправляются в ночную поездку в другой город. В дороге Оля слышит какие-то странные звуки и говорит Андрею, что чувствует — с машиной что-то не то. Это вызывает раздражение Андрея, который ничего этого не замечает, и становится поводом для конфликта. Тем временем их дочка на заднем сидении общается с какой-то невидимой тетей, но родители не слышат. Призрак убитой женщины не любит семейных ссор, и наши герои в ее власти… Их маршрут уже построен.

Дата премьеры (РФ): 31 марта 2016, «Двадцатый Век Фокс СНГ»
Качество: WEB-DLRip-AVC
Продолжительность: 01:21:45
Формат: MKV
Видео кодек: AVC
Аудио кодек: AAC
Видео: 880x374 (2.35:1), 25 fps, MPEG-4 AVC ~1 211 kbps avg, 0.147 bit/pixel
Аудио : 44.1 KHz / 22.05 KHz, AAC (HE-AAC / LC), 2 ch, ~64.00 kbps avg

MediaInfo

Общее
Уникальный идентификатор : 234819614369654049250886637587794560496 (0xB0A89CD8E27C2D10BD5B4AD08B4905F0)
Полное имя : E:/Видео (разное)/Marshrut.postroen.2016.WEB-DLRip-AVC.745Mb.stalkerok.new-team.mkv
Формат : Matroska
Версия формата : Version 4 / Version 2
Размер файла : 746 Мбайт
Продолжительность : 1 ч. 21 м.
Общий поток : 1276 Кбит/сек
Название фильма : Маршрут построен (2016) (New-Team) (Rip by Stalker oK)
Дата кодирования : UTC 2016-05-04 19:38:58
Программа кодирования : mkvmerge v8.6.1 ('Flying') 64bit
Библиотека кодирования : libebml v1.3.3 + libmatroska v1.4.4
Видео
Идентификатор : 1
Формат : AVC
Формат/Информация : Advanced Video Codec
Профиль формата : High@L4.1
Параметр CABAC формата : Да
Параметр ReFrames формата : 16 кадров
Идентификатор кодека : V_MPEG4/ISO/AVC
Продолжительность : 1 ч. 21 м.
Битрейт : 1211 Кбит/сек
Ширина : 880 пикселей
Высота : 374 пикселя
Соотношение сторон : 2,35:1
Режим частоты кадров : Постоянный
Частота кадров : 25,000 кадров/сек
Цветовое пространство : YUV
Субдискретизация насыщенности : 4:2:0
Битовая глубина : 8 бит
Тип развёртки : Прогрессивная
Бит/(Пиксели*Кадры) : 0.147
Размер потока : 708 Мбайт (95%)
Заголовок : Маршрут построен (2016) (New-Team) (Rip by Stalker oK)
Библиотека кодирования : x264 core 148 r2665kMod a01e339
Настройки программы : cabac=1 / ref=16 / deblock=1:-3:-2 / analyse=0x3:0x133 / me=umh / subme=11 / psy=1 / fade_compensate=0.00 / psy_rd=1.00:0.05 / mixed_ref=1 / me_range=48 / chroma_me=1 / trellis=2 / 8x8dct=1 / cqm=0 / deadzone=21,11 / fast_pskip=0 / chroma_qp_offset=-3 / threads=12 / lookahead_threads=2 / sliced_threads=0 / nr=0 / decimate=0 / interlaced=0 / bluray_compat=0 / constrained_intra=0 / fgo=0 / bframes=16 / b_pyramid=2 / b_adapt=2 / b_bias=0 / direct=3 / weightb=1 / open_gop=0 / weightp=2 / keyint=250 / keyint_min=25 / scenecut=40 / intra_refresh=0 / rc_lookahead=60 / rc=2pass / mbtree=0 / bitrate=1211 / ratetol=1.0 / qcomp=0.70 / qpmin=0 / qpmax=69 / qpstep=4 / cplxblur=20.0 / qblur=0.5 / vbv_maxrate=50000 / vbv_bufsize=62500 / nal_hrd=none / filler=0 / ip_ratio=1.40 / pb_ratio=1.30 / aq=3:0.93
Default : Да
Forced : Нет
Аудио
Идентификатор : 2
Формат : AAC
Формат/Информация : Advanced Audio Codec
Профиль формата : HE-AAC / LC
Идентификатор кодека : A_AAC
Продолжительность : 1 ч. 21 м.
Битрейт : 64,0 Кбит/сек
Каналы : 2 канала
Расположение каналов : Front: L R
Частота : 44,1 КГц / 22,05 КГц
Частота кадров : 21,533 кадра/сек (1024 spf)
Метод сжатия : С потерями
Задержка видео : 33 мс.
Размер потока : 37,4 Мбайт (5%)
Язык : Russian
Default : Да
Forced : Нет

Скриншоты

[Цитировать]



Показать сообщения:    

Текущее время: 09-Дек 20:29

Часовой пояс: UTC + 3


Вы не можете начинать темы
Вы не можете отвечать на сообщения
Вы не можете редактировать свои сообщения
Вы не можете удалять свои сообщения
Вы не можете голосовать в опросах
Вы не можете прикреплять файлы к сообщениям
Вы не можете скачивать файлы

!ВНИМАНИЕ!
Сайт не предоставляет электронные версии произведений, а занимается лишь коллекционированием и каталогизацией ссылок, присылаемых и публикуемых на форуме нашими читателями. Если вы являетесь правообладателем какого-либо представленного материала и не желаете, чтобы ссылка на него находилась в нашем каталоге, свяжитесь с нами, и мы незамедлительно удалим ее. Файлы для обмена на трекере предоставлены пользователями сайта, и администрация не несет ответственности за их содержание. Просьба не заливать файлы, защищенные авторскими правами, а также файлы нелегального содержания!