[ Сегодня идет свободное скачивание без начисления Download ]


Статистика раздачи
Нет
 
   
 
Top  
 
 
11:14 / Одиннадцать четырнадцать / ElevenFourteen (2003) BDRip 720p Информация о фильме
Название: 11:14 / Одиннадцать четырнадцать
Оригинальное название: 11:14 / ElevenFourteen
Год выхода: 2003
Жанр: драма, комедия, криминал
Режиссер: Грег Маркс
В ролях: Рэйчел Ли Кук, Хилари Суэнк, Патрик Суэйзи, Барбара Херши, Генри Томас, Шон Хэтоси, Бен Фостер, Колин Хэнкс, Кларк Грегг, Старк Сэндс
О фильме:
Миддлтон — очень миленькое провинциальное местечко. Одной очень странной ночью по шоссе на большой скорости движется автомобиль. За рулем изрядно подвыпивший парень говорит с кем-то по телефону. Громко орет радио. На часах 11:13. Вдруг внезапно на лобовое стекло падают чьи-то части тела. Время — 11:14… Добро пожаловать в Миддлтон!

Страна: США, Канада
Студия: Firm Films, MDP Worldwide, Media 8 Entertainment
Продолжительность: 01:25:41
Перевод: Профессиональный (дублированный) R5 + Авторский (одноголосый, закадровый) Д.Есарев + Авторский (одноголосый, закадровый) Д.Строев
Файл
Формат: Matroska
Видео: 1280x720 at 23.976 fps, [email protected], ~10500 kbps avg
Аудио#1: Russian: 48 kHz, DTS, 3/2 (L,C,R,l,r) + LFE ch, ~755.00 kbps avg |Дубляж, R5|
Аудио#2: Russian: 48 kHz, AC3, 3/2 (L,C,R,l,r) + LFE ch, ~640.00 kbps avg |Авторский, Д.Есарев|
Аудио#3: Russian: 48 kHz, AC3, 3/2 (L,C,R,l,r) + LFE ch, ~448.00 kbps avg |Авторский, Д.Строев|
Аудио#4: English: 48 kHz, AC3, 3/2 (L,C,R,l,r) + LFE ch, ~640.00 kbps avg
Субтитры: Russian, English (Full), English (SDH)
***Сохранены оригинальные главы как на Blu-ray.
***Внимание! В переводе Д.Строева присутствует ненормативная лексика!
***Перевод Д.Есарева доступен благодаря: napaHouk. Работа со звуком: Переводман.

MI

Общее
Уникальный идентификатор : 236521450294673129115815712537497437013 (0xB1F05FD6236634FDAAC3C429B5EA0355)
Полное имя : 11.14.2003.3xRus.Eng.BDRip.720p.-HELLYWOOD.mkv
Формат : Matroska
Версия формата : Version 4 / Version 2
Размер файла : 7,76 Гбайт
Продолжительность : 1 ч. 25 м.
Общий поток : 13,0 Мбит/сек
Название фильма : 11:14 (2003)
Дата кодирования : UTC 2016-05-05 10:28:50
Программа кодирования : mkvmerge v5.9.0 ('On The Loose') built on Dec 15 2012 16:39:58
Библиотека кодирования : libebml v1.3.0 + libmatroska v1.4.0
Видео
Идентификатор : 1
Формат : AVC
Формат/Информация : Advanced Video Codec
Профиль формата : [email protected]
Параметр CABAC формата : Да
Параметр ReFrames формата : 9 кадров
Идентификатор кодека : V_MPEG4/ISO/AVC
Продолжительность : 1 ч. 25 м.
Битрейт : 10,5 Мбит/сек
Ширина : 1280 пикселей
Высота : 720 пикселей
Соотношение сторон : 16:9
Режим частоты кадров : Постоянный
Частота кадров : 23,976 кадра/сек
Цветовое пространство : YUV
Субдискретизация насыщенности : 4:2:0
Битовая глубина : 8 бит
Тип развёртки : Прогрессивная
Бит/(Пиксели*Кадры) : 0.474
Размер потока : 6,12 Гбайт (79%)
Заголовок : potroks
Библиотека кодирования : x264 core 146 r2538 121396c
Настройки программы : cabac=1 / ref=9 / deblock=1:-3:-3 / analyse=0x3:0x113 / me=umh / subme=11 / psy=1 / psy_rd=0.90:0.00 / mixed_ref=1 / me_range=48 / chroma_me=1 / trellis=2 / 8x8dct=1 / cqm=0 / deadzone=21,11 / fast_pskip=0 / chroma_qp_offset=-2 / threads=9 / lookahead_threads=2 / sliced_threads=0 / nr=0 / decimate=0 / interlaced=0 / bluray_compat=0 / constrained_intra=0 / bframes=10 / b_pyramid=2 / b_adapt=2 / b_bias=0 / direct=3 / weightb=1 / open_gop=0 / weightp=2 / keyint=240 / keyint_min=23 / scenecut=40 / intra_refresh=0 / rc_lookahead=60 / rc=2pass / mbtree=0 / bitrate=10483 / ratetol=1.0 / qcomp=0.70 / qpmin=0 / qpmax=69 / qpstep=4 / cplxblur=20.0 / qblur=0.5 / vbv_maxrate=14000 / vbv_bufsize=14000 / nal_hrd=none / filler=0 / ip_ratio=1.35 / pb_ratio=1.25 / aq=1:1.00
Язык : English
Default : Да
Forced : Нет
Аудио #1
Идентификатор : 2
Формат : DTS
Формат/Информация : Digital Theater Systems
Режим : 16
Параметр Endianness формата : Big
Идентификатор кодека : A_DTS
Продолжительность : 1 ч. 25 м.
Вид битрейта : Постоянный
Битрейт : 755 Кбит/сек
Каналы : 6 каналов
Расположение каналов : Front: L C R, Side: L R, LFE
Частота : 48,0 КГц
Битовая глубина : 24 бит
Метод сжатия : С потерями
Размер потока : 462 Мбайт (6%)
Заголовок : Dub | DTS 5.1 @ 768 kbps - R5
Язык : Russian
Default : Да
Forced : Нет
Аудио #2
Идентификатор : 3
Формат : AC-3
Формат/Информация : Audio Coding 3
Расширение режима : CM (complete main)
Параметр Endianness формата : Big
Идентификатор кодека : A_AC3
Продолжительность : 1 ч. 25 м.
Вид битрейта : Постоянный
Битрейт : 640 Кбит/сек
Каналы : 6 каналов
Расположение каналов : Front: L C R, Side: L R, LFE
Частота : 48,0 КГц
Метод сжатия : С потерями
Размер потока : 392 Мбайт (5%)
Заголовок : AVO | DD 5.1 @ 640 kbps - D.Yesarev
Язык : Russian
Default : Нет
Forced : Нет
Аудио #3
Идентификатор : 4
Формат : AC-3
Формат/Информация : Audio Coding 3
Расширение режима : CM (complete main)
Параметр Endianness формата : Big
Идентификатор кодека : A_AC3
Продолжительность : 1 ч. 25 м.
Вид битрейта : Постоянный
Битрейт : 448 Кбит/сек
Каналы : 6 каналов
Расположение каналов : Front: L C R, Side: L R, LFE
Частота : 48,0 КГц
Метод сжатия : С потерями
Размер потока : 275 Мбайт (3%)
Заголовок : AVO | DD 5.1 @ 448 kbps - D.Stroev
Язык : Russian
Default : Нет
Forced : Нет
Аудио #4
Идентификатор : 5
Формат : AC-3
Формат/Информация : Audio Coding 3
Расширение режима : CM (complete main)
Параметр Endianness формата : Big
Идентификатор кодека : A_AC3
Продолжительность : 1 ч. 25 м.
Вид битрейта : Постоянный
Битрейт : 640 Кбит/сек
Каналы : 6 каналов
Расположение каналов : Front: L C R, Side: L R, LFE
Частота : 48,0 КГц
Метод сжатия : С потерями
Размер потока : 392 Мбайт (5%)
Заголовок : Original | DD 5.1 @ 640 kbps
Язык : English
Default : Нет
Forced : Нет
Текст #1
Идентификатор : 6
Формат : UTF-8
Идентификатор кодека : S_TEXT/UTF8
Идентификатор кодека/Информация : UTF-8 Plain Text
Язык : Russian
Default : Нет
Forced : Нет
Текст #2
Идентификатор : 7
Формат : UTF-8
Идентификатор кодека : S_TEXT/UTF8
Идентификатор кодека/Информация : UTF-8 Plain Text
Заголовок : Full
Язык : English
Default : Нет
Forced : Нет
Текст #3
Идентификатор : 8
Формат : UTF-8
Идентификатор кодека : S_TEXT/UTF8
Идентификатор кодека/Информация : UTF-8 Plain Text
Заголовок : SDH
Язык : English
Default : Нет
Forced : Нет
Меню
00:00:00.000 : en:(01)00:00:00:000
00:05:00.000 : en:(02)00:05:00:000
00:10:00.000 : en:(03)00:10:00:000
00:15:00.000 : en:(04)00:15:00:000
00:20:00.000 : en:(05)00:20:00:000
00:25:00.000 : en:(06)00:25:00:000
00:30:00.000 : en:(07)00:30:00:000
00:35:00.000 : en:(08)00:35:00:000
00:40:00.000 : en:(09)00:40:00:000
00:45:00.000 : en:(10)00:45:00:000
00:50:00.000 : en:(11)00:50:00:000
00:55:00.000 : en:(12)00:55:00:000
01:00:00.000 : en:(13)01:00:00:000
01:05:00.000 : en:(14)01:05:00:000
01:10:00.000 : en:(15)01:10:00:000
01:15:00.000 : en:(16)01:15:00:000
01:20:00.000 : en:(17)01:20:00:000
01:25:00.000 : en:(18)01:25:00:000

Скриншоты

[Цитировать]



Показать сообщения:    

Текущее время: 04-Дек 19:15

Часовой пояс: UTC + 3


Вы не можете начинать темы
Вы не можете отвечать на сообщения
Вы не можете редактировать свои сообщения
Вы не можете удалять свои сообщения
Вы не можете голосовать в опросах
Вы не можете прикреплять файлы к сообщениям
Вы не можете скачивать файлы

!ВНИМАНИЕ!
Сайт не предоставляет электронные версии произведений, а занимается лишь коллекционированием и каталогизацией ссылок, присылаемых и публикуемых на форуме нашими читателями. Если вы являетесь правообладателем какого-либо представленного материала и не желаете, чтобы ссылка на него находилась в нашем каталоге, свяжитесь с нами, и мы незамедлительно удалим ее. Файлы для обмена на трекере предоставлены пользователями сайта, и администрация не несет ответственности за их содержание. Просьба не заливать файлы, защищенные авторскими правами, а также файлы нелегального содержания!