[ Сегодня идет свободное скачивание без начисления Download ]


Статистика раздачи
Нет
 
   
 
Top  
 
 
Убийственные красотки / Drop Dead Gorgeous (1999) DVDRip Информация о фильме
Название: Убийственные красотки
Оригинальное название: Drop Dead Gorgeous
Год выхода: 1999
Жанр: комедия
Режиссер: Майкл Патрик Джэнн / Michael Patrick Jann
В ролях: Кирстен Данст (Amber Atkins), Эллен Баркин (Annette Atkins), Эллисон Дженни (Loretta), Дениз Ричардс (Rebecca «Becky» Ann Leeman), Кёрсти Элли (Gladys Leeman), Сэм МакМюррей (Lester Leeman), Минди Стерлинг (Iris Clark), Бриттани Мёрфи (Lisa Swenson), Эми Адамс (Leslie Miller), Лори А. Синклер (Michelle Johnson)
О фильме:
В провинциальном американском городке Маунт Роуз из штата Миннесота идет самая настоящая война не на жизнь, а на смерть. Главные соперницы: две юные претендентки на звание местной «королевы красоты» Бекки и Эмбер.
В сражении участвуют также их не в меру заботливые мамаши Глэдис и Аннетт, друзья, подруги, соседи и даже домашние животные. В ход идут любые средства, потому что в городке Маунт Роуз главное — не талант и красота.
Главное — стать «номером один». Никто и ничто не сможет остановить победную поступь убийственных красоток!

Страна: Германия, США
Продолжительность: 01:37:58
Перевод: Профессиональный (многоголосый закадровый) - СТС
Файл
Кодек: XviD / AC3
Качество: DVDRip
Видео: XviD, 704x528 (4:3), 25.000 fps, 1943 kbps avg
Звук: 48 khz, AC3 Dolby Digital, 2/0 (L,R) ch, ~192 kbps [СТС / ТНТ] VHSRip

Доп. информация:

Исходник видео - DVD5, найденный в сети.
За запись перевода от телеканала СТС с телеканала ТНТ в 2000-х годах через видеомагнитофон и оцифровку с видеокассеты большое спасибо Glowamy.
Синхронизация перевода - JUSTKANT.Данный перевод на трекере появляется впервые.
На русский язык фильм дублирован фирмой СВ-Дубль по заказу телеканала СТС в 2003 году.
Текст читали Виктор Бохон, Марина Тарасова и ещё один женский голос.

Скриншоты

MediaInfo

Общее
Полное имя : D:Релизы на ТрекереУбийственные Красотки (СТС).avi
Формат : AVI
Формат/Информация : Audio Video Interleave
Размер файла : 1,47 Гбайт
Продолжительность : 1 ч. 37 м.
Общий поток : 2145 Кбит/сек
Программа кодирования : VirtualDubMod 1.5.10.2 (build 2540/release)
Библиотека кодирования : VirtualDubMod build 2540/release
Видео
Идентификатор : 0
Формат : MPEG-4 Visual
Профиль формата : Advanced Simple@L5
Параметр BVOP формата : 1
Параметр QPel формата : Нет
Параметр GMC формата : Без точки перехода
Параметр матрицы формата : Выборочная
Идентификатор кодека : XVID
Идентификатор кодека/Подсказка : XviD
Продолжительность : 1 ч. 37 м.
Битрейт : 1943 Кбит/сек
Ширина : 704 пикселя
Высота : 528 пикселей
Соотношение сторон : 4:3
Частота кадров : 25,000 кадров/сек
Цветовое пространство : YUV
Субдискретизация насыщенности : 4:2:0
Битовая глубина : 8 бит
Тип развёртки : Прогрессивная
Метод сжатия : С потерями
Бит/(Пиксели*Кадры) : 0.209
Размер потока : 1,33 Гбайт (91%)
Библиотека кодирования : XviD 1.2.1 (UTC 2008-12-04)
Аудио
Идентификатор : 1
Формат : AC-3
Формат/Информация : Audio Coding 3
Расширение режима : CM (complete main)
Параметр Endianness формата : Big
Идентификатор кодека : 2000
Продолжительность : 1 ч. 37 м.
Вид битрейта : Постоянный
Битрейт : 192 Кбит/сек
Каналы : 2 канала
Расположение каналов : Front: L R
Частота : 48,0 КГц
Битовая глубина : 16 бит
Метод сжатия : С потерями
Размер потока : 135 Мбайт (9%)
Выравнивание : Разделение по промежуткам
Продолжительность промежутка : 40 мс. (1,00 видеокадр)
Время предзагрузки промежутка : 500 мс.

[Цитировать]



Показать сообщения:    

Текущее время: 07-Дек 19:30

Часовой пояс: UTC + 3


Вы не можете начинать темы
Вы не можете отвечать на сообщения
Вы не можете редактировать свои сообщения
Вы не можете удалять свои сообщения
Вы не можете голосовать в опросах
Вы не можете прикреплять файлы к сообщениям
Вы не можете скачивать файлы

!ВНИМАНИЕ!
Сайт не предоставляет электронные версии произведений, а занимается лишь коллекционированием и каталогизацией ссылок, присылаемых и публикуемых на форуме нашими читателями. Если вы являетесь правообладателем какого-либо представленного материала и не желаете, чтобы ссылка на него находилась в нашем каталоге, свяжитесь с нами, и мы незамедлительно удалим ее. Файлы для обмена на трекере предоставлены пользователями сайта, и администрация не несет ответственности за их содержание. Просьба не заливать файлы, защищенные авторскими правами, а также файлы нелегального содержания!