[ Сегодня идет свободное скачивание без начисления Download ]


Статистика раздачи
Нет
 
   
 
Top  
 
 
Молодая гвардия (1948) Страна: СССР
Производство: Студия Горького
Жанр: драма, военный
Год выпуска: 1948
Продолжительность: 02:39:59 (01:23:24 + 01:16:35)
Перевод: Не требуется
Cубтитры: нет
Оригинальная аудиодорожка: русский
Режиссер: Сергей Герасимов
В ролях: Владимир Иванов, Инна Макарова, Сергей Гурзо, Борис Битюков, Нонна Мордюкова, Сергей Бондарчук, Глеб Романов, Людмила Шагалова, Вячеслав Тихонов, Караман Мгеладзе, Анатолий Чемодуров, Георгий Юматов, Евгений Моргунов, Клара Лучко, Людмила Иванова, Муза Крепкогорская, Тамара Носова, Виктор Авдюшко, Георгий Шаповалов, Юрий Егоров, Виктор Хохряков, Евгений Тетерин, Андрей Файт, Тамара Макарова, Александра Панова, Аза Калашникова, Мария Яроцкая, Лев Фенин, Александра Денисова, Владимир Уральский, Зинаида Воркуль, Александра Харитонова, Сергей Комаров, Григорий Шпигель, Василий Бокарев, Алексей Розанов...
Полный список актёров
Описание: Фильм рассказывает о событиях 1942, происшедших в оккупированном фашистами Краснодоне. Вчерашние школьники создают подпольную организацию и начинают свою борьбу: распространяют листовки, освобождают группу пленных красноармейцев, сжигают немецкую биржу, спасая соотечественников от фашистского рабства, в день годовщины Октября развешивают красные флаги. В их действиях, как и в их детском бесстрашии многое идет от игры: ведь еще вчера кое-кто был признанным хулиганом, кое-кто вовсе не помышлял о подвигах, кое-кто не желал выслушивать наставления, подчиняться дисциплине. Но именно благодаря их изобретательности, отчаянной смелости и дерзости удавались самые опасные и самые ошеломляющие акции.- -Источник: DVD9 R5
Качество видео: DVDRip-AVC
Формат видео: MKV
Видео: 696->762x572 (4:3), 25 fps, H264 ~ 1755 kbps avg, 0.176 bit/pixel
Аудио: 48 kHz, Dolby Digital AC3 2.0, 192 kbps
Раздача от:

MediaInfo

Общее
Полное имя : Molodaya.Gvardia.1948.DVDRip-AVC_[New-team]_by_AVP_Studio1.mkv
Формат : Matroska
Версия формата : Version 2
Размер файла : 1,14 Гбайт
Продолжительность : 1 ч. 23 м.
Общий поток : 1949 Кбит/сек
Дата кодирования : UTC 2015-08-01 04:22:40
Программа кодирования : mkvmerge v6.1.0 ('Old Devil') built on Mar 4 2013 09:10:42
Библиотека кодирования : libebml v1.3.0 + libmatroska v1.4.0
Видео
Идентификатор : 1
Формат : AVC
Формат/Информация : Advanced Video Codec
Профиль формата : [email protected]
Параметр CABAC формата : Да
Параметр ReFrames формата : 8 кадров
Идентификатор кодека : V_MPEG4/ISO/AVC
Продолжительность : 1 ч. 23 м.
Битрейт : 1755 Кбит/сек
Ширина : 696 пикселей
Высота : 572 пикселя
Соотношение сторон : 4:3
Режим частоты кадров : Постоянный
Частота кадров : 25,000 кадров/сек
Цветовое пространство : YUV
Субдискретизация насыщенности : 4:2:0
Битовая глубина : 8 бит
Тип развёртки : Прогрессивная
Бит/(Пиксели*Кадры) : 0.176
Размер потока : 1,00 Гбайт (88%)
Библиотека кодирования : x264 core 130 r2273 b3065e6
Настройки программы : cabac=1 / ref=8 / deblock=1:-2:-1 / analyse=0x3:0x113 / me=umh / subme=10 / psy=1 / psy_rd=1.00:0.05 / mixed_ref=1 / me_range=32 / chroma_me=1 / trellis=2 / 8x8dct=1 / cqm=0 / deadzone=21,11 / fast_pskip=0 / chroma_qp_offset=-3 / threads=6 / lookahead_threads=1 / sliced_threads=0 / nr=0 / decimate=0 / interlaced=0 / bluray_compat=0 / constrained_intra=0 / bframes=8 / b_pyramid=2 / b_adapt=2 / b_bias=0 / direct=3 / weightb=1 / open_gop=0 / weightp=2 / keyint=250 / keyint_min=25 / scenecut=40 / intra_refresh=0 / rc=2pass / mbtree=0 / bitrate=1755 / ratetol=1.0 / qcomp=0.60 / qpmin=0 / qpmax=69 / qpstep=4 / cplxblur=20.0 / qblur=0.5 / ip_ratio=1.40 / pb_ratio=1.30 / aq=1:1.00
Default : Да
Forced : Нет
Аудио
Идентификатор : 2
Формат : AC-3
Формат/Информация : Audio Coding 3
Расширение режима : CM (complete main)
Параметр Endianness формата : Big
Идентификатор кодека : A_AC3
Продолжительность : 1 ч. 23 м.
Вид битрейта : Постоянный
Битрейт : 192 Кбит/сек
Каналы : 2 канала
Расположение каналов : Front: L R
Частота : 48,0 КГц
Метод сжатия : С потерями
Размер потока : 115 Мбайт (10%)
Default : Да
Forced : Нет

Скриншоты

[Цитировать]



Показать сообщения:    

Текущее время: 06-Дек 11:19

Часовой пояс: UTC + 3


Вы не можете начинать темы
Вы не можете отвечать на сообщения
Вы не можете редактировать свои сообщения
Вы не можете удалять свои сообщения
Вы не можете голосовать в опросах
Вы не можете прикреплять файлы к сообщениям
Вы не можете скачивать файлы

!ВНИМАНИЕ!
Сайт не предоставляет электронные версии произведений, а занимается лишь коллекционированием и каталогизацией ссылок, присылаемых и публикуемых на форуме нашими читателями. Если вы являетесь правообладателем какого-либо представленного материала и не желаете, чтобы ссылка на него находилась в нашем каталоге, свяжитесь с нами, и мы незамедлительно удалим ее. Файлы для обмена на трекере предоставлены пользователями сайта, и администрация не несет ответственности за их содержание. Просьба не заливать файлы, защищенные авторскими правами, а также файлы нелегального содержания!