[ Сегодня идет свободное скачивание без начисления Download ]


Статистика раздачи
Нет
 
   
 
Top  
 
 
Первый мститель: Противостояние / Captain America: Civil War«Разделившись мы падём» ♦ Год выпуска: 2016
♦ Страна: США
♦ Производство: Marvel Entertainment, Marvel Studios Inc., Studio Babelsberg
♦ Жанр: Фантастика, боевик, триллер, приключения
♦ Режиссёр: Энтони Руссо, Джо Руссо
♦ В ролях: Крис Эванс, Роберт Дауни мл., Скарлетт Йоханссон, Себастьян Стэн, Энтони Маки, Дон Чидл, Джереми Реннер, Чэдвик Боузмэн, Пол Беттани, Элизабет Олсен
♦ Перевод: Профессиональный (полное дублированние)
♦ Субтитры: Нет
♦ Описание: Мстители под руководством Капитана Америки оказываются участниками разрушительного инцидента, имеющего международный масштаб. Эти события заставляют правительство задуматься над тем, чтобы начать регулировать действия всех людей с особыми способностями, введя «Акт о регистрации супергероев», вынуждая их раскрыть свои личности и работать на правительственные службы.
Видя в этом законе нарушение гражданских прав и плевок во всё, что он верит, Стив Роджерс открыто восстаёт против нового режима, ведя за собой группу героев, поддерживающих его мнение. В свою же очередь, Тони Старк видит правильность в новом законе, и становится во главе героев, поддерживающих его. Всё это приводит к неизбежному расколу Мстителей, и гражданской войне между двумя сторонами. Сражаясь друг с другом, Старк и Роджерс не знают о том, что таинственный Барон Земо уже строит свои собственные планы, воспользовавшись расколом величайших героев Земли.
♦ Доп инфо: Удалены все рекламные вставки! ♦ Качество: CAMRip
♦ Продолжительность: 02:17:53
♦ Формат: AVI
♦ Видео кодек: XviD
♦ Аудио кодек: MP-3
♦ Видео: 720x304 (2.37:1), 29.970 fps, XviD MPEG-4 ~1217 kbps avg, 0.186 bit/pixel
♦ Аудио: 48 kHz, MPEG Layer 3, 2 ch, ~128.00 kbps avg
♦ Дата премьеры (мир): 12 апреля 2016
♦ Дата премьеры (РФ): 5 мая 2016, «WDSSPR»

MediaInfo:

Общее
Полное имя : E:\Kaztorka\Civil war CAMRip.avi
Формат : AVI
Формат/Информация : Audio Video Interleave
Размер файла : 1,36 Гбайт
Продолжительность : 2 ч. 17 м.
Общий поток : 1410 Кбит/сек
Библиотека кодирования : VirtualDub build 35576/release
Видео
Идентификатор : 0
Формат : MPEG-4 Visual
Профиль формата : Advanced Simple@L5
Параметр BVOP формата : 2
Параметр QPel формата : Нет
Параметр GMC формата : Без точки перехода
Параметр матрицы формата : Default (H.263)
Режим смешивания : Сжатый битовый поток
Идентификатор кодека : XVID
Идентификатор кодека/Подсказка : XviD
Продолжительность : 2 ч. 17 м.
Битрейт : 1217 Кбит/сек
Ширина : 720 пикселей
Высота : 304 пикселя
Соотношение сторон : 2,35:1
Частота кадров : 29,970 кадров/сек
Цветовое пространство : YUV
Субдискретизация насыщенности : 4:2:0
Битовая глубина : 8 бит
Тип развёртки : Прогрессивная
Метод сжатия : С потерями
Бит/(Пиксели*Кадры) : 0.186
Размер потока : 1,17 Гбайт (86%)
Библиотека кодирования : XviD 73
Аудио
Идентификатор : 1
Формат : MPEG Audio
Версия формата : Version 1
Профиль формата : Layer 3
Режим : Joint stereo
Расширение режима : MS Stereo
Идентификатор кодека : 55
Идентификатор кодека/Подсказка : MP3
Продолжительность : 2 ч. 17 м.
Вид битрейта : Постоянный
Битрейт : 128 Кбит/сек
Каналы : 2 канала
Частота : 48,0 КГц
Метод сжатия : С потерями
Задержка видео : 1 мс.
Размер потока : 126 Мбайт (9%)
Выравнивание : Разделение по промежуткам

Скриншоты

[Цитировать]



Показать сообщения:    

Текущее время: 07-Дек 23:14

Часовой пояс: UTC + 3


Вы не можете начинать темы
Вы не можете отвечать на сообщения
Вы не можете редактировать свои сообщения
Вы не можете удалять свои сообщения
Вы не можете голосовать в опросах
Вы не можете прикреплять файлы к сообщениям
Вы не можете скачивать файлы

!ВНИМАНИЕ!
Сайт не предоставляет электронные версии произведений, а занимается лишь коллекционированием и каталогизацией ссылок, присылаемых и публикуемых на форуме нашими читателями. Если вы являетесь правообладателем какого-либо представленного материала и не желаете, чтобы ссылка на него находилась в нашем каталоге, свяжитесь с нами, и мы незамедлительно удалим ее. Файлы для обмена на трекере предоставлены пользователями сайта, и администрация не несет ответственности за их содержание. Просьба не заливать файлы, защищенные авторскими правами, а также файлы нелегального содержания!