[ Сегодня идет свободное скачивание без начисления Download ]


Статистика раздачи
Качаю: [ 1 ]
Скачал: [ 4 ]
 
   
 
Top  
 
 
- ProfIT | PHP-3: Повышение квалификации (2016) PCRec - Автор (режиссер): Альберт Степанцев
Жанр: Веб-разработка, backend, PHP, базы данных, DevOps
Описание:
Короткий, но очень насыщенный интенсив для тех, кто уже работает программистом на языке PHP и хочет повысить свою квалификацию: узнать, что нового в языке и его реализации, что происходит в смежных отраслях, на что обратить свое внимание и куда развиваться дальше?
Продолжительность: 11:33:20
Качество видео: PCRec
Видео: AVC/H.264, 1280x684, ~215 - 250 Kbps
Аудио: AAC, 2 ch, 126 Kbps, VBR

Модули:

1. Composer и Phing - вместе веселее!
2. Миграции - управляем изменениями в БД
3. Консольное приложение и его тайны
4. Внутри PHP: ссылки и управление памятью
5. PHP Reflection API
6. Веб-сервисы, распределенная архитектура и REST
7. Введение в безопасную разработку

Mediainfo:

General
Complete name                            : C:\torrent\PHP 2 Повышение квалификации\1 урок 2016-03-28.mp4
Format                                   : MPEG-4
Format profile                           : Base Media / Version 2
Codec ID                                 : mp42 (mp42/isom)
File size                                : 223 MiB
Duration                                 : 1h 30mn
Overall bit rate mode                    : Variable
Overall bit rate                         : 344 Kbps
Video
ID                                       : 1
Format                                   : AVC
Format/Info                              : Advanced Video Codec
Format profile                           : [url=mailto:[email protected]][email protected][/url]
Format settings, CABAC                   : Yes
Format settings, ReFrames                : 1 frame
Codec ID                                 : avc1
Codec ID/Info                            : Advanced Video Coding
Duration                                 : 1h 30mn
Source duration                          : 1h 30mn
Bit rate                                 : 215 Kbps
Width                                    : 1 280 pixels
Height                                   : 684 pixels
Display aspect ratio                     : 1.85:1
Frame rate mode                          : Variable
Frame rate                               : 15.000 fps
Minimum frame rate                       : 15.000 fps
Maximum frame rate                       : 15.003 fps
Color space                              : YUV
Chroma subsampling                       : 4:2:0
Bit depth                                : 8 bits
Scan type                                : Progressive
Bits/(Pixel*Frame)                       : 0.016
Stream size                              : 139 MiB (62%)
Source stream size                       : 139 MiB (62%)
Language                                 : English
mdhd_Duration                            : 5436995
Audio
ID                                       : 2
Format                                   : AAC
Format/Info                              : Advanced Audio Codec
Format profile                           : LC
Codec ID                                 : 40
Duration                                 : 1h 30mn
Source duration                          : 1h 30mn
Bit rate mode                            : Variable
Bit rate                                 : 126 Kbps
Channel(s)                               : 2 channels
Channel positions                        : Front: L R
Sampling rate                            : 44.1 KHz
Frame rate                               : 43.066 fps (1024 spf)
Compression mode                         : Lossy
Stream size                              : 81.4 MiB (36%)
Source stream size                       : 81.4 MiB (36%)
Language                                 : English
mdhd_Duration                            : 5436941
General
Complete name                            : C:\torrent\PHP 2 Повышение квалификации\2 урок 2016-04-05.mp4
Format                                   : MPEG-4
Format profile                           : Base Media / Version 2
Codec ID                                 : mp42 (mp42/isom)
File size                                : 299 MiB
Duration                                 : 1h 51mn
Overall bit rate mode                    : Variable
Overall bit rate                         : 376 Kbps
Video
ID                                       : 1
Format                                   : AVC
Format/Info                              : Advanced Video Codec
Format profile                           : [url=mailto:[email protected]][email protected][/url]
Format settings, CABAC                   : Yes
Format settings, ReFrames                : 1 frame
Codec ID                                 : avc1
Codec ID/Info                            : Advanced Video Coding
Duration                                 : 1h 51mn
Source duration                          : 1h 51mn
Bit rate                                 : 247 Kbps
Width                                    : 1 280 pixels
Height                                   : 684 pixels
Display aspect ratio                     : 1.85:1
Frame rate mode                          : Variable
Frame rate                               : 15.000 fps
Minimum frame rate                       : 15.000 fps
Maximum frame rate                       : 15.003 fps
Color space                              : YUV
Chroma subsampling                       : 4:2:0
Bit depth                                : 8 bits
Scan type                                : Progressive
Bits/(Pixel*Frame)                       : 0.019
Stream size                              : 196 MiB (66%)
Source stream size                       : 196 MiB (66%)
Language                                 : English
mdhd_Duration                            : 6673660
Audio
ID                                       : 2
Format                                   : AAC
Format/Info                              : Advanced Audio Codec
Format profile                           : LC
Codec ID                                 : 40
Duration                                 : 1h 51mn
Source duration                          : 1h 51mn
Bit rate mode                            : Variable
Bit rate                                 : 126 Kbps
Channel(s)                               : 2 channels
Channel positions                        : Front: L R
Sampling rate                            : 44.1 KHz
Frame rate                               : 43.066 fps (1024 spf)
Compression mode                         : Lossy
Stream size                              : 99.9 MiB (33%)
Source stream size                       : 99.9 MiB (33%)
Language                                 : English
mdhd_Duration                            : 6673614
General
Complete name                            : C:\torrent\PHP 2 Повышение квалификации\3 урок  2016-04-08.mp4
Format                                   : MPEG-4
Format profile                           : Base Media / Version 2
Codec ID                                 : mp42 (mp42/isom)
File size                                : 232 MiB
Duration                                 : 1h 30mn
Overall bit rate mode                    : Variable
Overall bit rate                         : 358 Kbps
Video
ID                                       : 1
Format                                   : AVC
Format/Info                              : Advanced Video Codec
Format profile                           : [url=mailto:[email protected]][email protected][/url]
Format settings, CABAC                   : Yes
Format settings, ReFrames                : 1 frame
Codec ID                                 : avc1
Codec ID/Info                            : Advanced Video Coding
Duration                                 : 1h 30mn
Source duration                          : 1h 30mn
Bit rate                                 : 229 Kbps
Width                                    : 1 280 pixels
Height                                   : 684 pixels
Display aspect ratio                     : 1.85:1
Frame rate mode                          : Variable
Frame rate                               : 15.000 fps
Minimum frame rate                       : 15.000 fps
Maximum frame rate                       : 15.003 fps
Color space                              : YUV
Chroma subsampling                       : 4:2:0
Bit depth                                : 8 bits
Scan type                                : Progressive
Bits/(Pixel*Frame)                       : 0.017
Stream size                              : 148 MiB (64%)
Source stream size                       : 148 MiB (64%)
Language                                 : English
mdhd_Duration                            : 5437062
Audio
ID                                       : 2
Format                                   : AAC
Format/Info                              : Advanced Audio Codec
Format profile                           : LC
Codec ID                                 : 40
Duration                                 : 1h 30mn
Source duration                          : 1h 30mn
Bit rate mode                            : Variable
Bit rate                                 : 126 Kbps
Channel(s)                               : 2 channels
Channel positions                        : Front: L R
Sampling rate                            : 44.1 KHz
Frame rate                               : 43.066 fps (1024 spf)
Compression mode                         : Lossy
Stream size                              : 81.4 MiB (35%)
Source stream size                       : 81.4 MiB (35%)
Language                                 : English
mdhd_Duration                            : 5436978
General
Complete name                            : C:\torrent\PHP 2 Повышение квалификации\4 урок 2016-04-12.mp4
Format                                   : MPEG-4
Format profile                           : Base Media
Codec ID                                 : isom (isom/iso2/avc1/mp41)
File size                                : 267 MiB
Duration                                 : 1h 41mn
Overall bit rate mode                    : Variable
Overall bit rate                         : 368 Kbps
Encoded date                             : UTC 2016-04-12 19:58:42
Tagged date                              : UTC 2016-04-12 19:58:42
Video
ID                                       : 1
Format                                   : AVC
Format/Info                              : Advanced Video Codec
Format profile                           : [url=mailto:[email protected]][email protected][/url]
Format settings, CABAC                   : Yes
Format settings, ReFrames                : 1 frame
Codec ID                                 : avc1
Codec ID/Info                            : Advanced Video Coding
Duration                                 : 1h 41mn
Bit rate                                 : 241 Kbps
Width                                    : 1 280 pixels
Height                                   : 684 pixels
Display aspect ratio                     : 1.85:1
Frame rate mode                          : Constant
Frame rate                               : 15.000 fps
Color space                              : YUV
Chroma subsampling                       : 4:2:0
Bit depth                                : 8 bits
Scan type                                : Progressive
Bits/(Pixel*Frame)                       : 0.018
Stream size                              : 175 MiB (65%)
Title                                    : ISO Media file produced by Google Inc.
Encoded date                             : UTC 2016-04-12 19:58:42
Tagged date                              : UTC 2016-04-12 19:58:42
Audio
ID                                       : 2
Format                                   : AAC
Format/Info                              : Advanced Audio Codec
Format profile                           : LC
Codec ID                                 : 40
Duration                                 : 1h 41mn
Bit rate mode                            : Variable
Bit rate                                 : 126 Kbps
Channel(s)                               : 2 channels
Channel positions                        : Front: L R
Sampling rate                            : 44.1 KHz
Frame rate                               : 43.066 fps (1024 spf)
Compression mode                         : Lossy
Stream size                              : 91.1 MiB (34%)
Default                                  : Yes
Alternate group                          : 1
Encoded date                             : UTC 2016-04-12 19:08:03
Tagged date                              : UTC 2016-04-12 19:08:03
General
Complete name                            : C:\torrent\PHP 2 Повышение квалификации\5 урок 2016-04-15.mp4
Format                                   : MPEG-4
Format profile                           : Base Media
Codec ID                                 : isom (isom/iso2/avc1/mp41)
File size                                : 235 MiB
Duration                                 : 1h 27mn
Overall bit rate mode                    : Variable
Overall bit rate                         : 375 Kbps
Encoded date                             : UTC 2016-04-15 20:00:09
Tagged date                              : UTC 2016-04-15 20:00:09
Video
ID                                       : 1
Format                                   : AVC
Format/Info                              : Advanced Video Codec
Format profile                           : [url=mailto:[email protected]][email protected][/url]
Format settings, CABAC                   : Yes
Format settings, ReFrames                : 1 frame
Codec ID                                 : avc1
Codec ID/Info                            : Advanced Video Coding
Duration                                 : 1h 27mn
Bit rate                                 : 247 Kbps
Width                                    : 1 280 pixels
Height                                   : 684 pixels
Display aspect ratio                     : 1.85:1
Frame rate mode                          : Constant
Frame rate                               : 15.000 fps
Color space                              : YUV
Chroma subsampling                       : 4:2:0
Bit depth                                : 8 bits
Scan type                                : Progressive
Bits/(Pixel*Frame)                       : 0.019
Stream size                              : 155 MiB (66%)
Title                                    : ISO Media file produced by Google Inc.
Encoded date                             : UTC 2016-04-15 20:00:09
Tagged date                              : UTC 2016-04-15 20:00:09
Color range                              : Limited
Color primaries                          : BT.709
Transfer characteristics                 : BT.709
Matrix coefficients                      : BT.709
Audio
ID                                       : 2
Format                                   : AAC
Format/Info                              : Advanced Audio Codec
Format profile                           : LC
Codec ID                                 : 40
Duration                                 : 1h 27mn
Bit rate mode                            : Variable
Bit rate                                 : 126 Kbps
Channel(s)                               : 2 channels
Channel positions                        : Front: L R
Sampling rate                            : 44.1 KHz
Frame rate                               : 43.066 fps (1024 spf)
Compression mode                         : Lossy
Stream size                              : 78.9 MiB (34%)
Default                                  : Yes
Alternate group                          : 1
Encoded date                             : UTC 2016-04-15 18:56:57
Tagged date                              : UTC 2016-04-15 18:56:57
General
Complete name                            : C:\torrent\PHP 2 Повышение квалификации\6 урок 2016-04-19.mp4
Format                                   : MPEG-4
Format profile                           : Base Media / Version 2
Codec ID                                 : mp42 (mp42/isom)
File size                                : 285 MiB
Duration                                 : 1h 45mn
Overall bit rate mode                    : Variable
Overall bit rate                         : 379 Kbps
Video
ID                                       : 1
Format                                   : AVC
Format/Info                              : Advanced Video Codec
Format profile                           : [url=mailto:[email protected]][email protected][/url]
Format settings, CABAC                   : Yes
Format settings, ReFrames                : 1 frame
Codec ID                                 : avc1
Codec ID/Info                            : Advanced Video Coding
Duration                                 : 1h 45mn
Source duration                          : 1h 45mn
Bit rate                                 : 250 Kbps
Width                                    : 1 280 pixels
Height                                   : 684 pixels
Display aspect ratio                     : 1.85:1
Frame rate mode                          : Variable
Frame rate                               : 15.000 fps
Minimum frame rate                       : 14.998 fps
Maximum frame rate                       : 15.003 fps
Color space                              : YUV
Chroma subsampling                       : 4:2:0
Bit depth                                : 8 bits
Scan type                                : Progressive
Bits/(Pixel*Frame)                       : 0.019
Stream size                              : 188 MiB (66%)
Source stream size                       : 188 MiB (66%)
Language                                 : English
Color range                              : Limited
Color primaries                          : BT.709
Transfer characteristics                 : BT.709
Matrix coefficients                      : BT.709
mdhd_Duration                            : 6300994
Audio
ID                                       : 2
Format                                   : AAC
Format/Info                              : Advanced Audio Codec
Format profile                           : LC
Codec ID                                 : 40
Duration                                 : 1h 45mn
Source duration                          : 1h 45mn
Bit rate mode                            : Variable
Bit rate                                 : 126 Kbps
Channel(s)                               : 2 channels
Channel positions                        : Front: L R
Sampling rate                            : 44.1 KHz
Frame rate                               : 43.066 fps (1024 spf)
Compression mode                         : Lossy
Stream size                              : 94.3 MiB (33%)
Source stream size                       : 94.3 MiB (33%)
Language                                 : English
mdhd_Duration                            : 6300944
General
Complete name                            : C:\torrent\PHP 2 Повышение квалификации\7 урок 2016-04-22.mp4
Format                                   : MPEG-4
Format profile                           : Base Media
Codec ID                                 : isom (isom/iso2/avc1/mp41)
File size                                : 277 MiB
Duration                                 : 1h 46mn
Overall bit rate mode                    : Variable
Overall bit rate                         : 364 Kbps
Encoded date                             : UTC 2016-04-22 19:21:20
Tagged date                              : UTC 2016-04-22 19:21:20
Video
ID                                       : 1
Format                                   : AVC
Format/Info                              : Advanced Video Codec
Format profile                           : [url=mailto:[email protected]][email protected][/url]
Format settings, CABAC                   : Yes
Format settings, ReFrames                : 1 frame
Codec ID                                 : avc1
Codec ID/Info                            : Advanced Video Coding
Duration                                 : 1h 46mn
Source duration                          : 1h 46mn
Bit rate                                 : 236 Kbps
Width                                    : 1 280 pixels
Height                                   : 684 pixels
Display aspect ratio                     : 1.85:1
Frame rate mode                          : Constant
Frame rate                               : 15.000 fps
Color space                              : YUV
Chroma subsampling                       : 4:2:0
Bit depth                                : 8 bits
Scan type                                : Progressive
Bits/(Pixel*Frame)                       : 0.018
Stream size                              : 180 MiB (65%)
Source stream size                       : 180 MiB (65%)
Title                                    : ISO Media file produced by Google Inc.
Encoded date                             : UTC 2016-04-22 19:21:20
Tagged date                              : UTC 2016-04-22 19:21:20
Color range                              : Limited
Color primaries                          : BT.709
Transfer characteristics                 : BT.709
Matrix coefficients                      : BT.709
Audio
ID                                       : 2
Format                                   : AAC
Format/Info                              : Advanced Audio Codec
Format profile                           : LC
Codec ID                                 : 40
Duration                                 : 1h 46mn
Bit rate mode                            : Variable
Bit rate                                 : 126 Kbps
Channel(s)                               : 2 channels
Channel positions                        : Front: L R
Sampling rate                            : 44.1 KHz
Frame rate                               : 43.066 fps (1024 spf)
Compression mode                         : Lossy
Stream size                              : 95.8 MiB (35%)
Default                                  : Yes
Alternate group                          : 1
Encoded date                             : UTC 2016-04-22 19:14:10
Tagged date                              : UTC 2016-04-22 19:14:10
General
Complete name                            : C:\torrent\PHP 2 Повышение квалификации\Conten.txt
File size                                : 8.68 KiB
General
Complete name                            : C:\torrent\PHP 2 Повышение квалификации\php3-01.pdf
Format                                   : PDF
Format version                           : 1.6
File size                                : 816 KiB
Text
Format                                   : PDF
General
Complete name                            : C:\torrent\PHP 2 Повышение квалификации\php3-02.pdf
Format                                   : PDF
Format version                           : 1.6
File size                                : 733 KiB
Text
Format                                   : PDF
General
Complete name                            : C:\torrent\PHP 2 Повышение квалификации\php3-03.pdf
Format                                   : PDF
Format version                           : 1.6
File size                                : 919 KiB
Text
Format                                   : PDF
General
Complete name                            : C:\torrent\PHP 2 Повышение квалификации\php3-04.pdf
Format                                   : PDF
Format version                           : 1.6
File size                                : 1.02 MiB
Text
Format                                   : PDF
General
Complete name                            : C:\torrent\PHP 2 Повышение квалификации\php3-05.pdf
Format                                   : PDF
Format version                           : 1.6
File size                                : 930 KiB
Text
Format                                   : PDF
General
Complete name                            : C:\torrent\PHP 2 Повышение квалификации\php3-06.pdf
Format                                   : PDF
Format version                           : 1.6
File size                                : 1 000 KiB
Text
Format                                   : PDF
General
Complete name                            : C:\torrent\PHP 2 Повышение квалификации\php3-07.pdf
Format                                   : PDF
Format version                           : 1.6
File size                                : 928 KiB
Text
Format                                   : PDF
Скриншоты:

[Цитировать]



Показать сообщения:    

Текущее время: 05-Дек 13:35

Часовой пояс: UTC + 3


Вы не можете начинать темы
Вы не можете отвечать на сообщения
Вы не можете редактировать свои сообщения
Вы не можете удалять свои сообщения
Вы не можете голосовать в опросах
Вы не можете прикреплять файлы к сообщениям
Вы не можете скачивать файлы

!ВНИМАНИЕ!
Сайт не предоставляет электронные версии произведений, а занимается лишь коллекционированием и каталогизацией ссылок, присылаемых и публикуемых на форуме нашими читателями. Если вы являетесь правообладателем какого-либо представленного материала и не желаете, чтобы ссылка на него находилась в нашем каталоге, свяжитесь с нами, и мы незамедлительно удалим ее. Файлы для обмена на трекере предоставлены пользователями сайта, и администрация не несет ответственности за их содержание. Просьба не заливать файлы, защищенные авторскими правами, а также файлы нелегального содержания!